  0
SECTION
  2
HEADER
  9
$ACADVER
  1
AC1032
  9
$ACADMAINTVER
 90
       55
  9
$DWGCODEPAGE
  3
ANSI_936
  9
$LASTSAVEDBY
  1
xiaojisheng
  9
$REQUIREDVERSIONS
160
                 0
  9
$INSBASE
 10
0.0
 20
0.0
 30
0.0
  9
$EXTMIN
 10
-0.390434368618081
 20
-25.17773327626944
 30
0.0
  9
$EXTMAX
 10
126.2543714926854
 20
53.21429790210066
 30
0.0
  9
$LIMMIN
 10
0.0
 20
0.0
  9
$LIMMAX
 10
22.0
 20
17.0
  9
$ORTHOMODE
 70
     1
  9
$REGENMODE
 70
     1
  9
$FILLMODE
 70
     1
  9
$QTEXTMODE
 70
     0
  9
$MIRRTEXT
 70
     1
  9
$LTSCALE
 40
1.21
  9
$ATTMODE
 70
     1
  9
$TEXTSIZE
 40
0.2
  9
$TRACEWID
 40
0.05
  9
$TEXTSTYLE
  7
STANDARD
  9
$CLAYER
  8
0
  9
$CELTYPE
  6
BYLAYER
  9
$CECOLOR
 62
   256
  9
$CELTSCALE
 40
1.0
  9
$DISPSILH
 70
     0
  9
$DIMSCALE
 40
1.0
  9
$DIMASZ
 40
1.5
  9
$DIMEXO
 40
0.0625
  9
$DIMDLI
 40
0.836
  9
$DIMRND
 40
0.0
  9
$DIMDLE
 40
0.0
  9
$DIMEXE
 40
0.125
  9
$DIMTP
 40
0.0
  9
$DIMTM
 40
0.0
  9
$DIMTXT
 40
1.5
  9
$DIMCEN
 40
0.198
  9
$DIMTSZ
 40
0.0
  9
$DIMTOL
 70
     0
  9
$DIMLIM
 70
     0
  9
$DIMTIH
 70
     0
  9
$DIMTOH
 70
     0
  9
$DIMSE1
 70
     0
  9
$DIMSE2
 70
     0
  9
$DIMTAD
 70
     0
  9
$DIMZIN
 70
     0
  9
$DIMBLK
  1
FILLED
  9
$DIMASO
 70
     1
  9
$DIMSHO
 70
     1
  9
$DIMPOST
  1

  9
$DIMAPOST
  1

  9
$DIMALT
 70
     0
  9
$DIMALTD
 70
     2
  9
$DIMALTF
 40
25.4
  9
$DIMLFAC
 40
1.0
  9
$DIMTOFL
 70
     0
  9
$DIMTVP
 40
0.0
  9
$DIMTIX
 70
     0
  9
$DIMSOXD
 70
     0
  9
$DIMSAH
 70
     0
  9
$DIMBLK1
  1

  9
$DIMBLK2
  1

  9
$DIMSTYLE
  2
STANDARD
  9
$DIMCLRD
 70
     0
  9
$DIMCLRE
 70
     0
  9
$DIMCLRT
 70
     0
  9
$DIMTFAC
 40
1.0
  9
$DIMGAP
 40
0.09
  9
$DIMJUST
 70
     0
  9
$DIMSD1
 70
     0
  9
$DIMSD2
 70
     0
  9
$DIMTOLJ
 70
     1
  9
$DIMTZIN
 70
     0
  9
$DIMALTZ
 70
     0
  9
$DIMALTTZ
 70
     0
  9
$DIMUPT
 70
     0
  9
$DIMDEC
 70
     2
  9
$DIMTDEC
 70
     4
  9
$DIMALTU
 70
     2
  9
$DIMALTTD
 70
     2
  9
$DIMTXSTY
  7
STANDARD
  9
$DIMAUNIT
 70
     0
  9
$DIMADEC
 70
     0
  9
$DIMALTRND
 40
0.0
  9
$DIMAZIN
 70
     0
  9
$DIMDSEP
 70
    46
  9
$DIMATFIT
 70
     3
  9
$DIMFRAC
 70
     0
  9
$DIMLDRBLK
  1

  9
$DIMLUNIT
 70
     2
  9
$DIMLWD
 70
    -2
  9
$DIMLWE
 70
    -2
  9
$DIMTMOVE
 70
     0
  9
$DIMFXL
 40
1.0
  9
$DIMFXLON
 70
     0
  9
$DIMJOGANG
 40
0.7853981633974483
  9
$DIMTFILL
 70
     0
  9
$DIMTFILLCLR
 70
     0
  9
$DIMARCSYM
 70
     0
  9
$DIMLTYPE
  6

  9
$DIMLTEX1
  6

  9
$DIMLTEX2
  6

  9
$DIMTXTDIRECTION
 70
     0
  9
$LUNITS
 70
     2
  9
$LUPREC
 70
     4
  9
$SKETCHINC
 40
0.1
  9
$FILLETRAD
 40
2.0
  9
$AUNITS
 70
     0
  9
$AUPREC
 70
     0
  9
$MENU
  1
.
  9
$ELEVATION
 40
0.0
  9
$PELEVATION
 40
0.0
  9
$THICKNESS
 40
0.0
  9
$LIMCHECK
 70
     0
  9
$CHAMFERA
 40
0.0
  9
$CHAMFERB
 40
0.0
  9
$CHAMFERC
 40
0.0
  9
$CHAMFERD
 40
0.0
  9
$SKPOLY
 70
     0
  9
$TDCREATE
 40
2447893.333333333
  9
$TDUCREATE
 40
2447893.0
  9
$TDUPDATE
 40
2460306.602181667
  9
$TDUUPDATE
 40
2460306.268848334
  9
$TDINDWG
 40
0.0078240741
  9
$TDUSRTIMER
 40
0.0078240741
  9
$USRTIMER
 70
     1
  9
$ANGBASE
 50
0.0
  9
$ANGDIR
 70
     0
  9
$PDMODE
 70
     3
  9
$PDSIZE
 40
0.3125
  9
$PLINEWID
 40
0.0
  9
$SPLFRAME
 70
     0
  9
$SPLINETYPE
 70
     6
  9
$SPLINESEGS
 70
     8
  9
$HANDSEED
  5
EF8
  9
$SURFTAB1
 70
     6
  9
$SURFTAB2
 70
     6
  9
$SURFTYPE
 70
     6
  9
$SURFU
 70
     6
  9
$SURFV
 70
     6
  9
$UCSBASE
  2

  9
$UCSNAME
  2

  9
$UCSORG
 10
0.0
 20
0.0
 30
0.0
  9
$UCSXDIR
 10
1.0
 20
0.0
 30
0.0
  9
$UCSYDIR
 10
0.0
 20
1.0
 30
0.0
  9
$UCSORTHOREF
  2

  9
$UCSORTHOVIEW
 70
     0
  9
$UCSORGTOP
 10
0.0
 20
0.0
 30
0.0
  9
$UCSORGBOTTOM
 10
0.0
 20
0.0
 30
0.0
  9
$UCSORGLEFT
 10
0.0
 20
0.0
 30
0.0
  9
$UCSORGRIGHT
 10
0.0
 20
0.0
 30
0.0
  9
$UCSORGFRONT
 10
0.0
 20
0.0
 30
0.0
  9
$UCSORGBACK
 10
0.0
 20
0.0
 30
0.0
  9
$PUCSBASE
  2

  9
$PUCSNAME
  2

  9
$PUCSORG
 10
0.0
 20
0.0
 30
0.0
  9
$PUCSXDIR
 10
1.0
 20
0.0
 30
0.0
  9
$PUCSYDIR
 10
0.0
 20
1.0
 30
0.0
  9
$PUCSORTHOREF
  2

  9
$PUCSORTHOVIEW
 70
     0
  9
$PUCSORGTOP
 10
0.0
 20
0.0
 30
0.0
  9
$PUCSORGBOTTOM
 10
0.0
 20
0.0
 30
0.0
  9
$PUCSORGLEFT
 10
0.0
 20
0.0
 30
0.0
  9
$PUCSORGRIGHT
 10
0.0
 20
0.0
 30
0.0
  9
$PUCSORGFRONT
 10
0.0
 20
0.0
 30
0.0
  9
$PUCSORGBACK
 10
0.0
 20
0.0
 30
0.0
  9
$USERI1
 70
     0
  9
$USERI2
 70
     0
  9
$USERI3
 70
     0
  9
$USERI4
 70
     0
  9
$USERI5
 70
     0
  9
$USERR1
 40
0.0
  9
$USERR2
 40
0.0
  9
$USERR3
 40
0.0
  9
$USERR4
 40
0.0
  9
$USERR5
 40
0.0
  9
$WORLDVIEW
 70
     1
  9
$SHADEDGE
 70
     3
  9
$SHADEDIF
 70
    70
  9
$TILEMODE
 70
     1
  9
$MAXACTVP
 70
    64
  9
$PINSBASE
 10
0.0
 20
0.0
 30
0.0
  9
$PLIMCHECK
 70
     0
  9
$PEXTMIN
 10
1.000000000000000E+20
 20
1.000000000000000E+20
 30
1.000000000000000E+20
  9
$PEXTMAX
 10
-1.000000000000000E+20
 20
-1.000000000000000E+20
 30
-1.000000000000000E+20
  9
$PLIMMIN
 10
0.0
 20
0.0
  9
$PLIMMAX
 10
12.0
 20
9.0
  9
$UNITMODE
 70
     0
  9
$VISRETAIN
 70
     1
  9
$PLINEGEN
 70
     0
  9
$PSLTSCALE
 70
     1
  9
$TREEDEPTH
 70
  3020
  9
$CMLSTYLE
  2
Standard
  9
$CMLJUST
 70
     0
  9
$CMLSCALE
 40
1.0
  9
$PROXYGRAPHICS
 70
     1
  9
$MEASUREMENT
 70
     0
  9
$CELWEIGHT
370
    -1
  9
$ENDCAPS
280
     0
  9
$JOINSTYLE
280
     0
  9
$LWDISPLAY
290
     0
  9
$INSUNITS
 70
     4
  9
$HYPERLINKBASE
  1

  9
$STYLESHEET
  1

  9
$XEDIT
290
     1
  9
$CEPSNTYPE
380
     0
  9
$PSTYLEMODE
290
     1
  9
$FINGERPRINTGUID
  2
{1b4900bc-26bf-4a86-af64-e9cb374b2c9f}
  9
$VERSIONGUID
  2
{FAEB1C32-E019-11D5-929B-00C0DF256EC4}
  9
$EXTNAMES
290
     1
  9
$PSVPSCALE
 40
0.0
  9
$OLESTARTUP
290
     0
  9
$SORTENTS
280
   127
  9
$INDEXCTL
280
     0
  9
$HIDETEXT
280
     1
  9
$XCLIPFRAME
280
     1
  9
$HALOGAP
280
     0
  9
$OBSCOLOR
 70
   257
  9
$OBSLTYPE
280
     0
  9
$INTERSECTIONDISPLAY
280
     0
  9
$INTERSECTIONCOLOR
 70
   257
  9
$DIMASSOC
280
     2
  9
$PROJECTNAME
  1

  9
$CAMERADISPLAY
290
     0
  9
$LENSLENGTH
 40
50.0
  9
$CAMERAHEIGHT
 40
0.0
  9
$STEPSPERSEC
 40
2.0
  9
$STEPSIZE
 40
6.0
  9
$3DDWFPREC
 40
2.0
  9
$PSOLWIDTH
 40
0.25
  9
$PSOLHEIGHT
 40
4.0
  9
$LOFTANG1
 40
1.570796326794897
  9
$LOFTANG2
 40
1.570796326794897
  9
$LOFTMAG1
 40
0.0
  9
$LOFTMAG2
 40
0.0
  9
$LOFTPARAM
 70
     7
  9
$LOFTNORMALS
280
     1
  9
$LATITUDE
 40
37.795
  9
$LONGITUDE
 40
-122.394
  9
$NORTHDIRECTION
 40
0.0
  9
$TIMEZONE
 70
 -8000
  9
$LIGHTGLYPHDISPLAY
280
     1
  9
$TILEMODELIGHTSYNCH
280
     1
  9
$CMATERIAL
347
546
  9
$SOLIDHIST
280
     0
  9
$SHOWHIST
280
     1
  9
$DWFFRAME
280
     2
  9
$DGNFRAME
280
     2
  9
$REALWORLDSCALE
290
     1
  9
$INTERFERECOLOR
 62
   256
  9
$CSHADOW
280
     0
  9
$SHADOWPLANELOCATION
 40
0.0
  0
ENDSEC
  0
SECTION
  2
CLASSES
  0
CLASS
  1
ACDBDICTIONARYWDFLT
  2
AcDbDictionaryWithDefault
  3
ObjectDBX Classes
 90
        0
 91
        3
280
     0
281
     0
  0
CLASS
  1
ACDBPLACEHOLDER
  2
AcDbPlaceHolder
  3
ObjectDBX Classes
 90
        0
 91
        1
280
     0
281
     0
  0
CLASS
  1
LAYOUT
  2
AcDbLayout
  3
ObjectDBX Classes
 90
        0
 91
        1
280
     0
281
     0
  0
CLASS
  1
SCALE
  2
AcDbScale
  3
ObjectDBX Classes
 90
     1153
 91
        3
280
     0
281
     0
  0
CLASS
  1
VISUALSTYLE
  2
AcDbVisualStyle
  3
ObjectDBX Classes
 90
     4095
 91
        3
280
     0
281
     0
  0
CLASS
  1
MATERIAL
  2
AcDbMaterial
  3
ObjectDBX Classes
 90
     1153
 91
        3
280
     0
281
     0
  0
CLASS
  1
TABLESTYLE
  2
AcDbTableStyle
  3
ObjectDBX Classes
 90
     4095
 91
        3
280
     0
281
     0
  0
CLASS
  1
MLEADERSTYLE
  2
AcDbMLeaderStyle
  3
ACDB_MLEADERSTYLE_CLASS
 90
     4095
 91
        3
280
     0
281
     0
  0
CLASS
  1
SORTENTSTABLE
  2
AcDbSortentsTable
  3
ObjectDBX Classes
 90
        0
 91
        3
280
     0
281
     0
  0
CLASS
  1
SUN
  2
AcDbSun
  3
SCENEOE
 90
     1153
 91
        3
280
     0
281
     0
  0
CLASS
  1
DIMASSOC
  2
AcDbDimAssoc
  3
"AcDbDimAssoc|Product Desc:     AcDim ARX App For Dimension|Company:          Autodesk, Inc.|WEB Address:      www.autodesk.com"
 90
        0
 91
        3
280
     0
281
     0
  0
CLASS
  1
DICTIONARYVAR
  2
AcDbDictionaryVar
  3
ObjectDBX Classes
 90
        0
 91
        3
280
     0
281
     0
  0
CLASS
  1
CELLSTYLEMAP
  2
AcDbCellStyleMap
  3
ObjectDBX Classes
 90
     1152
 91
        3
280
     0
281
     0
  0
ENDSEC
  0
SECTION
  2
TABLES
  0
TABLE
  2
VPORT
  5
8
330
0
100
AcDbSymbolTable
 70
     1
  0
VPORT
  5
1F4
330
8
100
AcDbSymbolTableRecord
100
AcDbViewportTableRecord
  2
*ACTIVE
 70
     0
 10
0.0
 20
0.0
 11
1.0
 21
1.0
 12
105.7707869993281
 22
12.84915548449282
 13
0.0
 23
0.0
 14
1.0
 24
1.0
 15
0.5
 25
0.5
 16
0.0
 26
0.0
 36
1.0
 17
0.0
 27
0.0
 37
0.0
 40
130.927879672889
 41
1.908326324642557
 42
50.0
 43
0.0
 44
0.0
 50
0.0
 51
0.0
 71
     0
 72
   100
 73
     1
 74
     1
 75
     0
 76
     0
 77
     0
 78
     0
281
     0
 65
     1
110
0.0
120
0.0
130
0.0
111
1.0
121
0.0
131
0.0
112
0.0
122
1.0
132
0.0
 79
     0
146
0.0
348
531
 60
     3
 61
     5
292
     1
282
     1
141
0.0
142
0.0
 63
   256
361
A21
  0
ENDTAB
  0
TABLE
  2
LTYPE
  5
5
330
0
100
AcDbSymbolTable
 70
     6
  0
LTYPE
  5
14
330
5
100
AcDbSymbolTableRecord
100
AcDbLinetypeTableRecord
  2
BYBLOCK
 70
     0
  3

 72
    65
 73
     0
 40
0.0
  0
LTYPE
  5
15
330
5
100
AcDbSymbolTableRecord
100
AcDbLinetypeTableRecord
  2
BYLAYER
 70
     0
  3

 72
    65
 73
     0
 40
0.0
  0
LTYPE
  5
16
330
5
100
AcDbSymbolTableRecord
100
AcDbLinetypeTableRecord
  2
CONTINUOUS
 70
     0
  3
Solid line
 72
    65
 73
     0
 40
0.0
  0
LTYPE
  5
1F5
330
5
100
AcDbSymbolTableRecord
100
AcDbLinetypeTableRecord
  2
CENTER
 70
     0
  3
____ _ ____ _ ____ _ ____ _ ____ _ ____ _ ____
 72
    65
 73
     4
 40
0.6
 49
0.375
 74
     0
 49
-0.075
 74
     0
 49
0.075
 74
     0
 49
-0.075
 74
     0
  0
LTYPE
  5
1F6
330
5
100
AcDbSymbolTableRecord
100
AcDbLinetypeTableRecord
  2
HIDDEN
 70
     0
  3
- - - - - - - - - - - - - - - - - - - -
 72
    65
 73
     2
 40
0.2
 49
0.1
 74
     0
 49
-0.1
 74
     0
  0
LTYPE
  5
1F7
330
5
100
AcDbSymbolTableRecord
100
AcDbLinetypeTableRecord
  2
PHANTOM
 70
     0
  3
_____ _ _ _____ _ _ _____ _ _ _____
 72
    65
 73
     6
 40
0.8
 49
0.45
 74
     0
 49
-0.05
 74
     0
 49
0.1
 74
     0
 49
-0.05
 74
     0
 49
0.1
 74
     0
 49
-0.05
 74
     0
  0
LTYPE
  5
1F8
330
5
100
AcDbSymbolTableRecord
100
AcDbLinetypeTableRecord
  2
DOT
 70
     0
  3
. . . . . . . . . . . . . . . . . . . .
 72
    65
 73
     2
 40
0.2
 49
0.1
 74
     0
 49
-0.1
 74
     0
  0
LTYPE
  5
1F9
330
5
100
AcDbSymbolTableRecord
100
AcDbLinetypeTableRecord
  2
DASHED
 70
     0
  3
- - - - - - - - - - - - - - - - - - - -
 72
    65
 73
     2
 40
0.2
 49
0.1
 74
     0
 49
-0.1
 74
     0
  0
ENDTAB
  0
TABLE
  2
LAYER
  5
2
330
0
100
AcDbSymbolTable
 70
    14
  0
LAYER
  5
10
330
2
100
AcDbSymbolTableRecord
100
AcDbLayerTableRecord
  2
0
 70
     0
 62
     7
  6
CONTINUOUS
370
    -3
390
F
347
548
348
0
  0
LAYER
  5
1FA
330
2
100
AcDbSymbolTableRecord
100
AcDbLayerTableRecord
  2
DEFAULT_1
 70
     0
 62
     7
  6
CENTER
370
    -3
390
F
347
548
348
0
  0
LAYER
  5
1FB
330
2
100
AcDbSymbolTableRecord
100
AcDbLayerTableRecord
  2
DEFAULT_2
 70
     0
 62
     8
  6
HIDDEN
370
    -3
390
F
347
548
348
0
  0
LAYER
  5
1FC
330
2
100
AcDbSymbolTableRecord
100
AcDbLayerTableRecord
  2
DEFAULT_3
 70
     0
 62
     7
  6
PHANTOM
370
    -3
390
F
347
548
348
0
  0
LAYER
  5
1FD
330
2
100
AcDbSymbolTableRecord
100
AcDbLayerTableRecord
  2
01___PRT_ALL_DTM_PLN
 70
     0
 62
     7
  6
CONTINUOUS
370
    -3
390
F
347
548
348
0
  0
LAYER
  5
1FE
330
2
100
AcDbSymbolTableRecord
100
AcDbLayerTableRecord
  2
01___PRT_DEF_DTM_PLN
 70
     0
 62
     7
  6
CONTINUOUS
370
    -3
390
F
347
548
348
0
  0
LAYER
  5
1FF
330
2
100
AcDbSymbolTableRecord
100
AcDbLayerTableRecord
  2
02___PRT_ALL_AXES
 70
     0
 62
     7
  6
CONTINUOUS
370
    -3
390
F
347
548
348
0
  0
LAYER
  5
200
330
2
100
AcDbSymbolTableRecord
100
AcDbLayerTableRecord
  2
03___PRT_ALL_CURVES
 70
     0
 62
     7
  6
CONTINUOUS
370
    -3
390
F
347
548
348
0
  0
LAYER
  5
201
330
2
100
AcDbSymbolTableRecord
100
AcDbLayerTableRecord
  2
04___PRT_ALL_DTM_PNT
 70
     0
 62
     7
  6
CONTINUOUS
370
    -3
390
F
347
548
348
0
  0
LAYER
  5
202
330
2
100
AcDbSymbolTableRecord
100
AcDbLayerTableRecord
  2
05___PRT_ALL_DTM_CSYS
 70
     0
 62
     7
  6
CONTINUOUS
370
    -3
390
F
347
548
348
0
  0
LAYER
  5
203
330
2
100
AcDbSymbolTableRecord
100
AcDbLayerTableRecord
  2
05___PRT_DEF_DTM_CSYS
 70
     0
 62
     7
  6
CONTINUOUS
370
    -3
390
F
347
548
348
0
  0
LAYER
  5
204
330
2
100
AcDbSymbolTableRecord
100
AcDbLayerTableRecord
  2
06___PRT_ALL_SURFS
 70
     0
 62
     7
  6
CONTINUOUS
370
    -3
390
F
347
548
348
0
  0
LAYER
  5
74D
330
2
100
AcDbSymbolTableRecord
100
AcDbLayerTableRecord
  2
DEFPOINTS
 70
     0
 62
     7
  6
CONTINUOUS
290
     0
370
    -3
390
F
347
548
348
0
  0
LAYER
  5
74F
330
2
100
AcDbSymbolTableRecord
100
AcDbLayerTableRecord
  2
Dim
 70
     0
 62
     3
  6
CONTINUOUS
370
    25
390
F
347
548
348
0
1001
AcAecLayerStandard
1000
标注层
  0
ENDTAB
  0
TABLE
  2
STYLE
  5
3
330
0
100
AcDbSymbolTable
 70
     2
  0
STYLE
  5
11
330
3
100
AcDbSymbolTableRecord
100
AcDbTextStyleTableRecord
  2
STANDARD
 70
     0
 40
0.0
 41
0.8
 50
0.0
 71
     0
 42
0.2
  3
txt
  4

  0
STYLE
  5
205
330
3
100
AcDbSymbolTableRecord
100
AcDbTextStyleTableRecord
  2
TEXTSTYLE_1
 70
     0
 40
0.0
 41
0.8
 50
0.0
 71
     0
 42
0.2
  3
gdt
  4

  0
ENDTAB
  0
TABLE
  2
VIEW
  5
6
330
0
100
AcDbSymbolTable
 70
     0
  0
ENDTAB
  0
TABLE
  2
UCS
  5
7
330
0
100
AcDbSymbolTable
 70
     0
  0
ENDTAB
  0
TABLE
  2
APPID
  5
9
330
0
100
AcDbSymbolTable
 70
     4
  0
APPID
  5
206
330
9
100
AcDbSymbolTableRecord
100
AcDbRegAppTableRecord
  2
ACAD
 70
     0
  0
APPID
  5
74E
330
9
100
AcDbSymbolTableRecord
100
AcDbRegAppTableRecord
  2
AcAecLayerStandard
 70
     0
  0
APPID
  5
8F0
330
9
100
AcDbSymbolTableRecord
100
AcDbRegAppTableRecord
  2
ACAD_DSTYLE_DIMRADIAL_EXTENSION
 70
     0
  0
APPID
  5
A20
330
9
100
AcDbSymbolTableRecord
100
AcDbRegAppTableRecord
  2
YAOC_SYMBOLMASK
 70
     0
  0
ENDTAB
  0
TABLE
  2
DIMSTYLE
  5
A
330
0
100
AcDbSymbolTable
 70
     1
100
AcDbDimStyleTable
  0
DIMSTYLE
105
20A
102
{ACAD_REACTORS
330
750
330
766
330
77C
330
7A5
330
7BB
330
7E7
330
858
330
881
330
897
330
8AD
330
8C3
330
8D9
330
8F1
330
905
330
91B
102
}
330
A
100
AcDbSymbolTableRecord
100
AcDbDimStyleTableRecord
  2
STANDARD
 70
     0
 41
0.1875
 44
0.125
 47
0.01
 48
0.01
 78
     4
 79
     1
140
0.15625
171
     1
178
     0
179
     2
271
     2
272
     2
284
     4
340
11
341
209
342
209
343
209
344
209
  0
ENDTAB
  0
TABLE
  2
BLOCK_RECORD
  5
1
330
0
100
AcDbSymbolTable
 70
    25
  0
BLOCK_RECORD
  5
207
330
1
100
AcDbSymbolTableRecord
100
AcDbBlockTableRecord
  2
*Model_Space
340
508
 70
     0
280
     1
281
     0
  0
BLOCK_RECORD
  5
208
330
1
100
AcDbSymbolTableRecord
100
AcDbBlockTableRecord
  2
*Paper_Space
340
509
 70
     0
280
     1
281
     0
  0
BLOCK_RECORD
  5
209
330
1
100
AcDbSymbolTableRecord
100
AcDbBlockTableRecord
  2
_FILLED
340
0
102
{BLKREFS
331
758
331
75A
331
76E
331
770
331
784
331
786
331
799
331
79B
331
7AD
331
7AF
331
7C3
331
7C5
331
7D9
331
7DB
331
7EF
331
7F1
331
804
331
806
331
817
331
819
331
82B
331
82D
331
841
331
843
331
860
331
862
331
875
331
877
331
889
331
88B
331
89F
331
8A1
331
8B5
331
8B7
331
8CB
331
8CD
331
8E1
331
8E3
331
8F7
331
90D
331
90F
331
923
331
925
331
938
331
93A
331
94B
331
94D
102
}
 70
     0
280
     1
281
     0
  0
BLOCK_RECORD
  5
75E
330
1
100
AcDbSymbolTableRecord
100
AcDbBlockTableRecord
  2
*D1
340
0
 70
     0
280
     1
281
     0
  0
BLOCK_RECORD
  5
774
330
1
100
AcDbSymbolTableRecord
100
AcDbBlockTableRecord
  2
*D2
340
0
 70
     0
280
     1
281
     0
  0
BLOCK_RECORD
  5
78A
330
1
100
AcDbSymbolTableRecord
100
AcDbBlockTableRecord
  2
*D3
340
0
 70
     0
280
     1
281
     0
  0
BLOCK_RECORD
  5
79F
330
1
100
AcDbSymbolTableRecord
100
AcDbBlockTableRecord
  2
*D4
340
0
 70
     0
280
     1
281
     0
  0
BLOCK_RECORD
  5
7B3
330
1
100
AcDbSymbolTableRecord
100
AcDbBlockTableRecord
  2
*D5
340
0
 70
     0
280
     1
281
     0
  0
BLOCK_RECORD
  5
7C9
330
1
100
AcDbSymbolTableRecord
100
AcDbBlockTableRecord
  2
*D6
340
0
 70
     0
280
     1
281
     0
  0
BLOCK_RECORD
  5
7DF
330
1
100
AcDbSymbolTableRecord
100
AcDbBlockTableRecord
  2
*D7
340
0
 70
     0
280
     1
281
     0
  0
BLOCK_RECORD
  5
7F5
330
1
100
AcDbSymbolTableRecord
100
AcDbBlockTableRecord
  2
*D8
340
0
 70
     0
280
     1
281
     0
  0
BLOCK_RECORD
  5
80A
330
1
100
AcDbSymbolTableRecord
100
AcDbBlockTableRecord
  2
*D9
340
0
 70
     0
280
     1
281
     0
  0
BLOCK_RECORD
  5
81D
330
1
100
AcDbSymbolTableRecord
100
AcDbBlockTableRecord
  2
*D10
340
0
 70
     0
280
     1
281
     0
  0
BLOCK_RECORD
  5
831
330
1
100
AcDbSymbolTableRecord
100
AcDbBlockTableRecord
  2
*D11
340
0
 70
     0
280
     1
281
     0
  0
BLOCK_RECORD
  5
847
330
1
100
AcDbSymbolTableRecord
100
AcDbBlockTableRecord
  2
*D12
340
0
 70
     0
280
     1
281
     0
  0
BLOCK_RECORD
  5
866
330
1
100
AcDbSymbolTableRecord
100
AcDbBlockTableRecord
  2
*D13
340
0
 70
     0
280
     1
281
     0
  0
BLOCK_RECORD
  5
87B
330
1
100
AcDbSymbolTableRecord
100
AcDbBlockTableRecord
  2
*D14
340
0
 70
     0
280
     1
281
     0
  0
BLOCK_RECORD
  5
88F
330
1
100
AcDbSymbolTableRecord
100
AcDbBlockTableRecord
  2
*D15
340
0
 70
     0
280
     1
281
     0
  0
BLOCK_RECORD
  5
8A5
330
1
100
AcDbSymbolTableRecord
100
AcDbBlockTableRecord
  2
*D16
340
0
 70
     0
280
     1
281
     0
  0
BLOCK_RECORD
  5
8BB
330
1
100
AcDbSymbolTableRecord
100
AcDbBlockTableRecord
  2
*D17
340
0
 70
     0
280
     1
281
     0
  0
BLOCK_RECORD
  5
8D1
330
1
100
AcDbSymbolTableRecord
100
AcDbBlockTableRecord
  2
*D18
340
0
 70
     0
280
     1
281
     0
  0
BLOCK_RECORD
  5
8E7
330
1
100
AcDbSymbolTableRecord
100
AcDbBlockTableRecord
  2
*D19
340
0
 70
     0
280
     1
281
     0
  0
BLOCK_RECORD
  5
8FD
330
1
100
AcDbSymbolTableRecord
100
AcDbBlockTableRecord
  2
*D20
340
0
 70
     0
280
     1
281
     0
  0
BLOCK_RECORD
  5
913
330
1
100
AcDbSymbolTableRecord
100
AcDbBlockTableRecord
  2
*D21
340
0
 70
     0
280
     1
281
     0
  0
BLOCK_RECORD
  5
929
330
1
100
AcDbSymbolTableRecord
100
AcDbBlockTableRecord
  2
*D22
340
0
 70
     0
280
     1
281
     0
  0
BLOCK_RECORD
  5
93E
330
1
100
AcDbSymbolTableRecord
100
AcDbBlockTableRecord
  2
*D23
340
0
 70
     0
280
     1
281
     0
  0
BLOCK_RECORD
  5
951
330
1
100
AcDbSymbolTableRecord
100
AcDbBlockTableRecord
  2
*D24
340
0
 70
     0
280
     1
281
     0
  0
ENDTAB
  0
ENDSEC
  0
SECTION
  2
BLOCKS
  0
BLOCK
  5
20
330
207
100
AcDbEntity
  8
0
100
AcDbBlockBegin
  2
*Model_Space
 70
     0
 10
0.0
 20
0.0
 30
0.0
  3
*Model_Space
  1

  0
ENDBLK
  5
21
330
207
100
AcDbEntity
  8
0
100
AcDbBlockEnd
  0
BLOCK
  5
1C
330
208
100
AcDbEntity
 67
     1
  8
0
100
AcDbBlockBegin
  2
*Paper_Space
 70
     0
 10
0.0
 20
0.0
 30
0.0
  3
*Paper_Space
  1

  0
ENDBLK
  5
1D
330
208
100
AcDbEntity
 67
     1
  8
0
100
AcDbBlockEnd
  0
BLOCK
  5
20B
330
209
100
AcDbEntity
  8
0
100
AcDbBlockBegin
  2
_FILLED
 70
     0
 10
0.0
 20
0.0
 30
0.0
  3
_FILLED
  1

  0
SOLID
  5
20C
330
209
100
AcDbEntity
  8
0
  6
ByBlock
 62
     0
100
AcDbTrace
 10
0.0
 20
0.0
 30
0.0
 11
-1.0
 21
0.1666666667
 31
0.0
 12
-1.0
 22
-0.1666666667
 32
0.0
 13
-1.0
 23
-0.1666666667
 33
0.0
  0
ENDBLK
  5
20D
330
209
100
AcDbEntity
  8
0
  6
ByBlock
 62
     0
100
AcDbBlockEnd
  0
BLOCK
  5
762
330
75E
100
AcDbEntity
  8
0
100
AcDbBlockBegin
  2
*D1
 70
     1
 10
0.0
 20
0.0
 30
0.0
  3
*D1
  1

  0
POINT
  5
752
330
75E
100
AcDbEntity
  8
DEFPOINTS
  6
ByBlock
 62
     0
100
AcDbPoint
 10
16.13149817524538
 20
31.02596180204017
 30
0.0
  0
POINT
  5
753
330
75E
100
AcDbEntity
  8
DEFPOINTS
  6
ByBlock
 62
     0
100
AcDbPoint
 10
44.16149817558536
 20
31.02596180204017
 30
0.0
  0
LINE
  5
754
330
75E
100
AcDbEntity
  8
0
  6
ByBlock
 62
     0
370
    -2
100
AcDbLine
 10
16.13149817524538
 20
31.08846180204017
 30
0.0
 11
16.13149817524538
 21
46.39818366060139
 31
0.0
  0
LINE
  5
755
330
75E
100
AcDbEntity
  8
0
  6
ByBlock
 62
     0
370
    -2
100
AcDbLine
 10
44.16149817558536
 20
31.08846180204017
 30
0.0
 11
44.16149817558536
 21
46.39818366060139
 31
0.0
  0
LINE
  5
756
330
75E
100
AcDbEntity
  8
0
  6
ByBlock
 62
     0
370
    -2
100
AcDbLine
 10
16.13149817524538
 20
46.27318366060139
 30
0.0
 11
23.55649817541537
 21
46.27318366060139
 31
0.0
  0
LINE
  5
757
330
75E
100
AcDbEntity
  8
0
  6
ByBlock
 62
     0
370
    -2
100
AcDbLine
 10
44.16149817558536
 20
46.27318366060139
 30
0.0
 11
36.73649817541538
 21
46.27318366060139
 31
0.0
  0
INSERT
  5
758
330
75E
100
AcDbEntity
  8
0
  6
ByBlock
 62
     0
370
    -2
100
AcDbBlockReference
  2
_FILLED
 10
16.13149817524538
 20
46.27318366060139
 30
0.0
 41
1.5
 42
1.5
 43
1.5
 50
180.0
  0
INSERT
  5
75A
330
75E
100
AcDbEntity
  8
0
  6
ByBlock
 62
     0
370
    -2
100
AcDbBlockReference
  2
_FILLED
 10
44.16149817558536
 20
46.27318366060139
 30
0.0
 41
1.5
 42
1.5
 43
1.5
  0
MTEXT
  5
75C
330
75E
100
AcDbEntity
  8
0
  6
ByBlock
 62
     0
370
    -2
100
AcDbMText
 10
30.14649817541537
 20
46.27318366060139
 30
0.0
 40
1.5
 41
0.0
 46
0.0
 71
     5
 72
     1
  1
\A1;28.03 LCD AA
 73
     1
 44
1.0
  0
ENDBLK
  5
763
330
75E
100
AcDbEntity
  8
0
100
AcDbBlockEnd
  0
BLOCK
  5
778
330
774
100
AcDbEntity
  8
0
100
AcDbBlockBegin
  2
*D2
 70
     1
 10
0.0
 20
0.0
 30
0.0
  3
*D2
  1

  0
POINT
  5
768
330
774
100
AcDbEntity
  8
DEFPOINTS
  6
ByBlock
 62
     0
100
AcDbPoint
 10
13.1464981737054
 20
33.85596180116013
 30
0.0
  0
POINT
  5
769
330
774
100
AcDbEntity
  8
DEFPOINTS
  6
ByBlock
 62
     0
100
AcDbPoint
 10
47.14649817458539
 20
33.85596180116013
 30
0.0
  0
LINE
  5
76A
330
774
100
AcDbEntity
  8
0
  6
ByBlock
 62
     0
370
    -2
100
AcDbLine
 10
13.1464981737054
 20
33.91846180116013
 30
0.0
 11
13.1464981737054
 21
51.04434237192237
 31
0.0
  0
LINE
  5
76B
330
774
100
AcDbEntity
  8
0
  6
ByBlock
 62
     0
370
    -2
100
AcDbLine
 10
47.14649817458539
 20
33.91846180116013
 30
0.0
 11
47.14649817458539
 21
51.04434237192237
 31
0.0
  0
LINE
  5
76C
330
774
100
AcDbEntity
  8
0
  6
ByBlock
 62
     0
370
    -2
100
AcDbLine
 10
13.1464981737054
 20
50.91934237192237
 30
0.0
 11
23.55649817414539
 21
50.91934237192237
 31
0.0
  0
LINE
  5
76D
330
774
100
AcDbEntity
  8
0
  6
ByBlock
 62
     0
370
    -2
100
AcDbLine
 10
47.14649817458539
 20
50.91934237192237
 30
0.0
 11
36.7364981741454
 21
50.91934237192237
 31
0.0
  0
INSERT
  5
76E
330
774
100
AcDbEntity
  8
0
  6
ByBlock
 62
     0
370
    -2
100
AcDbBlockReference
  2
_FILLED
 10
13.1464981737054
 20
50.91934237192237
 30
0.0
 41
1.5
 42
1.5
 43
1.5
 50
180.0
  0
INSERT
  5
770
330
774
100
AcDbEntity
  8
0
  6
ByBlock
 62
     0
370
    -2
100
AcDbBlockReference
  2
_FILLED
 10
47.14649817458539
 20
50.91934237192237
 30
0.0
 41
1.5
 42
1.5
 43
1.5
  0
MTEXT
  5
772
330
774
100
AcDbEntity
  8
0
  6
ByBlock
 62
     0
370
    -2
100
AcDbMText
 10
30.14649817414539
 20
50.91934237192237
 30
0.0
 40
1.5
 41
0.0
 46
0.0
 71
     5
 72
     1
  1
\A1;34.00%%p0.2 LCM
 73
     1
 44
1.0
  0
ENDBLK
  5
779
330
774
100
AcDbEntity
  8
0
100
AcDbBlockEnd
  0
BLOCK
  5
78E
330
78A
100
AcDbEntity
  8
0
100
AcDbBlockBegin
  2
*D3
 70
     1
 10
0.0
 20
0.0
 30
0.0
  3
*D3
  1

  0
POINT
  5
77E
330
78A
100
AcDbEntity
  8
DEFPOINTS
  6
ByBlock
 62
     0
100
AcDbPoint
 10
16.13149817524538
 20
31.02596180204017
 30
0.0
  0
POINT
  5
77F
330
78A
100
AcDbEntity
  8
DEFPOINTS
  6
ByBlock
 62
     0
100
AcDbPoint
 10
16.13149817524538
 20
-4.014038196559824
 30
0.0
  0
LINE
  5
780
330
78A
100
AcDbEntity
  8
0
  6
ByBlock
 62
     0
370
    -2
100
AcDbLine
 10
16.06899817524538
 20
31.02596180204017
 30
0.0
 11
8.751606833060734
 21
31.02596180204017
 31
0.0
  0
LINE
  5
781
330
78A
100
AcDbEntity
  8
0
  6
ByBlock
 62
     0
370
    -2
100
AcDbLine
 10
16.06899817524538
 20
-4.014038196559824
 30
0.0
 11
8.751606833060734
 21
-4.014038196559824
 31
0.0
  0
LINE
  5
782
330
78A
100
AcDbEntity
  8
0
  6
ByBlock
 62
     0
370
    -2
100
AcDbLine
 10
8.876606833060734
 20
31.02596180204017
 30
0.0
 11
8.876606833060734
 21
20.29596180274017
 31
0.0
  0
LINE
  5
783
330
78A
100
AcDbEntity
  8
0
  6
ByBlock
 62
     0
370
    -2
100
AcDbLine
 10
8.876606833060734
 20
-4.014038196559824
 30
0.0
 11
8.876606833060734
 21
6.715961802740175
 31
0.0
  0
INSERT
  5
784
330
78A
100
AcDbEntity
  8
0
  6
ByBlock
 62
     0
370
    -2
100
AcDbBlockReference
  2
_FILLED
 10
8.876606833060734
 20
31.02596180204017
 30
0.0
 41
1.5
 42
1.5
 43
1.5
 50
90.0
  0
INSERT
  5
786
330
78A
100
AcDbEntity
  8
0
  6
ByBlock
 62
     0
370
    -2
100
AcDbBlockReference
  2
_FILLED
 10
8.876606833060734
 20
-4.014038196559824
 30
0.0
 41
1.5
 42
1.5
 43
1.5
 50
270.0
  0
MTEXT
  5
788
330
78A
100
AcDbEntity
  8
0
  6
ByBlock
 62
     0
370
    -2
100
AcDbMText
 10
8.876606833060734
 20
13.50596180274017
 30
0.0
 40
1.5
 41
0.0
 46
0.0
 71
     5
 72
     1
  1
\A1;35.04 LCD A.A
 11
6.123233995736766E-17
 21
1.0
 31
0.0
 73
     1
 44
1.0
  0
ENDBLK
  5
78F
330
78A
100
AcDbEntity
  8
0
100
AcDbBlockEnd
  0
BLOCK
  5
7A3
330
79F
100
AcDbEntity
  8
0
100
AcDbBlockBegin
  2
*D4
 70
     1
 10
0.0
 20
0.0
 30
0.0
  3
*D4
  1

  0
POINT
  5
793
330
79F
100
AcDbEntity
  8
DEFPOINTS
  6
ByBlock
 62
     0
100
AcDbPoint
 10
16.13149817524538
 20
31.02596180204017
 30
0.0
  0
POINT
  5
794
330
79F
100
AcDbEntity
  8
DEFPOINTS
  6
ByBlock
 62
     0
100
AcDbPoint
 10
44.16149817558536
 20
31.02596180204017
 30
0.0
  0
LINE
  5
795
330
79F
100
AcDbEntity
  8
0
  6
ByBlock
 62
     0
370
    -2
100
AcDbLine
 10
16.13149817524538
 20
31.08846180204017
 30
0.0
 11
16.13149817524538
 21
46.39818366060139
 31
0.0
  0
LINE
  5
796
330
79F
100
AcDbEntity
  8
0
  6
ByBlock
 62
     0
370
    -2
100
AcDbLine
 10
44.16149817558536
 20
31.08846180204017
 30
0.0
 11
44.16149817558536
 21
46.39818366060139
 31
0.0
  0
LINE
  5
797
330
79F
100
AcDbEntity
  8
0
  6
ByBlock
 62
     0
370
    -2
100
AcDbLine
 10
16.13149817524538
 20
46.27318366060139
 30
0.0
 11
23.35649817541537
 21
46.27318366060139
 31
0.0
  0
LINE
  5
798
330
79F
100
AcDbEntity
  8
0
  6
ByBlock
 62
     0
370
    -2
100
AcDbLine
 10
44.16149817558536
 20
46.27318366060139
 30
0.0
 11
36.93649817541537
 21
46.27318366060139
 31
0.0
  0
INSERT
  5
799
330
79F
100
AcDbEntity
  8
0
  6
ByBlock
 62
     0
370
    -2
100
AcDbBlockReference
  2
_FILLED
 10
16.13149817524538
 20
46.27318366060139
 30
0.0
 41
1.5
 42
1.5
 43
1.5
 50
180.0
  0
INSERT
  5
79B
330
79F
100
AcDbEntity
  8
0
  6
ByBlock
 62
     0
370
    -2
100
AcDbBlockReference
  2
_FILLED
 10
44.16149817558536
 20
46.27318366060139
 30
0.0
 41
1.5
 42
1.5
 43
1.5
  0
MTEXT
  5
79D
330
79F
100
AcDbEntity
  8
0
  6
ByBlock
 62
     0
370
    -2
100
AcDbMText
 10
30.14649817541537
 20
46.27318366060139
 30
0.0
 40
1.5
 41
0.0
 46
0.0
 71
     5
 72
     1
  1
\A1;28.03 LCD A.A
 73
     1
 44
1.0
  0
ENDBLK
  5
7A4
330
79F
100
AcDbEntity
  8
0
100
AcDbBlockEnd
  0
BLOCK
  5
7B7
330
7B3
100
AcDbEntity
  8
0
100
AcDbBlockBegin
  2
*D5
 70
     1
 10
0.0
 20
0.0
 30
0.0
  3
*D5
  1

  0
POINT
  5
7A7
330
7B3
100
AcDbEntity
  8
DEFPOINTS
  6
ByBlock
 62
     0
100
AcDbPoint
 10
13.1464981737054
 20
33.85596180116013
 30
0.0
  0
POINT
  5
7A8
330
7B3
100
AcDbEntity
  8
DEFPOINTS
  6
ByBlock
 62
     0
100
AcDbPoint
 10
13.1464981737054
 20
-11.97403819727981
 30
0.0
  0
LINE
  5
7A9
330
7B3
100
AcDbEntity
  8
0
  6
ByBlock
 62
     0
370
    -2
100
AcDbLine
 10
13.0839981737054
 20
33.85596180116013
 30
0.0
 11
4.691805371567824
 21
33.85596180116013
 31
0.0
  0
LINE
  5
7AA
330
7B3
100
AcDbEntity
  8
0
  6
ByBlock
 62
     0
370
    -2
100
AcDbLine
 10
13.0839981737054
 20
-11.97403819727981
 30
0.0
 11
4.691805371567824
 21
-11.97403819727981
 31
0.0
  0
LINE
  5
7AB
330
7B3
100
AcDbEntity
  8
0
  6
ByBlock
 62
     0
370
    -2
100
AcDbLine
 10
4.816805371567824
 20
33.85596180116013
 30
0.0
 11
4.816805371567824
 21
17.73096180194016
 31
0.0
  0
LINE
  5
7AC
330
7B3
100
AcDbEntity
  8
0
  6
ByBlock
 62
     0
370
    -2
100
AcDbLine
 10
4.816805371567824
 20
-11.97403819727981
 30
0.0
 11
4.816805371567824
 21
4.150961801940163
 31
0.0
  0
INSERT
  5
7AD
330
7B3
100
AcDbEntity
  8
0
  6
ByBlock
 62
     0
370
    -2
100
AcDbBlockReference
  2
_FILLED
 10
4.816805371567824
 20
33.85596180116013
 30
0.0
 41
1.5
 42
1.5
 43
1.5
 50
90.0
  0
INSERT
  5
7AF
330
7B3
100
AcDbEntity
  8
0
  6
ByBlock
 62
     0
370
    -2
100
AcDbBlockReference
  2
_FILLED
 10
4.816805371567824
 20
-11.97403819727981
 30
0.0
 41
1.5
 42
1.5
 43
1.5
 50
270.0
  0
MTEXT
  5
7B1
330
7B3
100
AcDbEntity
  8
0
  6
ByBlock
 62
     0
370
    -2
100
AcDbMText
 10
4.816805371567824
 20
10.94096180194016
 30
0.0
 40
1.5
 41
0.0
 46
0.0
 71
     5
 72
     1
  1
\A1;45.83%%p0.2 LCM
 11
6.123233995736766E-17
 21
1.0
 31
0.0
 73
     1
 44
1.0
  0
ENDBLK
  5
7B8
330
7B3
100
AcDbEntity
  8
0
100
AcDbBlockEnd
  0
BLOCK
  5
7CD
330
7C9
100
AcDbEntity
  8
0
100
AcDbBlockBegin
  2
*D6
 70
     1
 10
0.0
 20
0.0
 30
0.0
  3
*D6
  1

  0
POINT
  5
7BD
330
7C9
100
AcDbEntity
  8
DEFPOINTS
  6
ByBlock
 62
     0
100
AcDbPoint
 10
13.1464981737054
 20
33.85596180116013
 30
0.0
  0
POINT
  5
7BE
330
7C9
100
AcDbEntity
  8
DEFPOINTS
  6
ByBlock
 62
     0
100
AcDbPoint
 10
15.14686534136538
 20
39.18653524210021
 30
0.0
  0
LINE
  5
7BF
330
7C9
100
AcDbEntity
  8
0
  6
ByBlock
 62
     0
370
    -2
100
AcDbLine
 10
13.0839981737054
 20
33.85596180116013
 30
0.0
 11
4.691805371567824
 21
33.85596180116013
 31
0.0
  0
LINE
  5
7C0
330
7C9
100
AcDbEntity
  8
0
  6
ByBlock
 62
     0
370
    -2
100
AcDbLine
 10
15.08436534136538
 20
39.18653524210021
 30
0.0
 11
4.691805371567824
 21
39.18653524210021
 31
0.0
  0
LINE
  5
7C1
330
7C9
100
AcDbEntity
  8
0
  6
ByBlock
 62
     0
370
    -2
100
AcDbLine
 10
4.816805371567824
 20
33.85596180116013
 30
0.0
 11
4.816805371567824
 21
30.85596180116013
 31
0.0
  0
LINE
  5
7C2
330
7C9
100
AcDbEntity
  8
0
  6
ByBlock
 62
     0
370
    -2
100
AcDbLine
 10
4.816805371567824
 20
39.18653524210021
 30
0.0
 11
4.816805371567824
 21
42.18653524210021
 31
0.0
  0
INSERT
  5
7C3
330
7C9
100
AcDbEntity
  8
0
  6
ByBlock
 62
     0
370
    -2
100
AcDbBlockReference
  2
_FILLED
 10
4.816805371567824
 20
33.85596180116013
 30
0.0
 41
1.5
 42
1.5
 43
1.5
 50
90.0
  0
INSERT
  5
7C5
330
7C9
100
AcDbEntity
  8
0
  6
ByBlock
 62
     0
370
    -2
100
AcDbBlockReference
  2
_FILLED
 10
4.816805371567824
 20
39.18653524210021
 30
0.0
 41
1.5
 42
1.5
 43
1.5
 50
270.0
  0
MTEXT
  5
7C7
330
7C9
100
AcDbEntity
  8
0
  6
ByBlock
 62
     0
370
    -2
100
AcDbMText
 10
4.816805371567824
 20
36.52124852163017
 30
0.0
 40
1.5
 41
0.0
 46
0.0
 71
     5
 72
     1
  1
\A1;5.33
 11
6.123233995736766E-17
 21
1.0
 31
0.0
 73
     1
 44
1.0
  0
ENDBLK
  5
7CE
330
7C9
100
AcDbEntity
  8
0
100
AcDbBlockEnd
  0
BLOCK
  5
7E3
330
7DF
100
AcDbEntity
  8
0
100
AcDbBlockBegin
  2
*D7
 70
     1
 10
0.0
 20
0.0
 30
0.0
  3
*D7
  1

  0
POINT
  5
7D3
330
7DF
100
AcDbEntity
  8
DEFPOINTS
  6
ByBlock
 62
     0
100
AcDbPoint
 10
15.13644883184537
 20
-17.32312979777984
 30
0.0
  0
POINT
  5
7D4
330
7DF
100
AcDbEntity
  8
DEFPOINTS
  6
ByBlock
 62
     0
100
AcDbPoint
 10
7.661507690162432
 20
-11.97403819727981
 30
0.0
  0
LINE
  5
7D5
330
7DF
100
AcDbEntity
  8
0
  6
ByBlock
 62
     0
370
    -2
100
AcDbLine
 10
15.07394883184537
 20
-17.32312979777984
 30
0.0
 11
9.572256653203619
 21
-17.32312979777984
 31
0.0
  0
LINE
  5
7D6
330
7DF
100
AcDbEntity
  8
0
  6
ByBlock
 62
     0
370
    -2
100
AcDbLine
 10
7.724007690162432
 20
-11.97403819727981
 30
0.0
 11
9.822256653203619
 21
-11.97403819727981
 31
0.0
  0
LINE
  5
7D7
330
7DF
100
AcDbEntity
  8
0
  6
ByBlock
 62
     0
370
    -2
100
AcDbLine
 10
9.697256653203619
 20
-17.32312979777984
 30
0.0
 11
9.697256653203619
 21
-20.32312979777984
 31
0.0
  0
LINE
  5
7D8
330
7DF
100
AcDbEntity
  8
0
  6
ByBlock
 62
     0
370
    -2
100
AcDbLine
 10
9.697256653203619
 20
-11.97403819727981
 30
0.0
 11
9.697256653203619
 21
-8.97403819727981
 31
0.0
  0
INSERT
  5
7D9
330
7DF
100
AcDbEntity
  8
0
  6
ByBlock
 62
     0
370
    -2
100
AcDbBlockReference
  2
_FILLED
 10
9.697256653203619
 20
-17.32312979777984
 30
0.0
 41
1.5
 42
1.5
 43
1.5
 50
90.0
  0
INSERT
  5
7DB
330
7DF
100
AcDbEntity
  8
0
  6
ByBlock
 62
     0
370
    -2
100
AcDbBlockReference
  2
_FILLED
 10
9.697256653203619
 20
-11.97403819727981
 30
0.0
 41
1.5
 42
1.5
 43
1.5
 50
270.0
  0
MTEXT
  5
7DD
330
7DF
100
AcDbEntity
  8
0
  6
ByBlock
 62
     0
370
    -2
100
AcDbMText
 10
9.697256653203619
 20
-14.64858399752983
 30
0.0
 40
1.5
 41
0.0
 46
0.0
 71
     5
 72
     1
  1
\A1;5.35
 11
6.123233995736766E-17
 21
1.0
 31
0.0
 73
     1
 44
1.0
  0
ENDBLK
  5
7E4
330
7DF
100
AcDbEntity
  8
0
100
AcDbBlockEnd
  0
BLOCK
  5
7F9
330
7F5
100
AcDbEntity
  8
0
100
AcDbBlockBegin
  2
*D8
 70
     1
 10
0.0
 20
0.0
 30
0.0
  3
*D8
  1

  0
POINT
  5
7E9
330
7F5
100
AcDbEntity
  8
DEFPOINTS
  6
ByBlock
 62
     0
100
AcDbPoint
 10
15.13644883184537
 20
-17.32312979777984
 30
0.0
  0
POINT
  5
7EA
330
7F5
100
AcDbEntity
  8
DEFPOINTS
  6
ByBlock
 62
     0
100
AcDbPoint
 10
15.14686534136538
 20
39.18653524210021
 30
0.0
  0
LINE
  5
7EB
330
7F5
100
AcDbEntity
  8
0
  6
ByBlock
 62
     0
370
    -2
100
AcDbLine
 10
15.07394883184537
 20
-17.32312979777984
 30
0.0
 11
0.2345656313819191
 21
-17.32312979777984
 31
0.0
  0
LINE
  5
7EC
330
7F5
100
AcDbEntity
  8
0
  6
ByBlock
 62
     0
370
    -2
100
AcDbLine
 10
15.08436534136538
 20
39.18653524210021
 30
0.0
 11
0.2345656313819191
 21
39.18653524210021
 31
0.0
  0
LINE
  5
7ED
330
7F5
100
AcDbEntity
  8
0
  6
ByBlock
 62
     0
370
    -2
100
AcDbLine
 10
0.3595656313819191
 20
-17.32312979777984
 30
0.0
 11
0.3595656313819191
 21
8.641702722160183
 31
0.0
  0
LINE
  5
7EE
330
7F5
100
AcDbEntity
  8
0
  6
ByBlock
 62
     0
370
    -2
100
AcDbLine
 10
0.3595656313819191
 20
39.18653524210021
 30
0.0
 11
0.3595656313819191
 21
13.22170272216018
 31
0.0
  0
INSERT
  5
7EF
330
7F5
100
AcDbEntity
  8
0
  6
ByBlock
 62
     0
370
    -2
100
AcDbBlockReference
  2
_FILLED
 10
0.3595656313819191
 20
-17.32312979777984
 30
0.0
 41
1.5
 42
1.5
 43
1.5
 50
270.0
  0
INSERT
  5
7F1
330
7F5
100
AcDbEntity
  8
0
  6
ByBlock
 62
     0
370
    -2
100
AcDbBlockReference
  2
_FILLED
 10
0.3595656313819191
 20
39.18653524210021
 30
0.0
 41
1.5
 42
1.5
 43
1.5
 50
90.0
  0
MTEXT
  5
7F3
330
7F5
100
AcDbEntity
  8
0
  6
ByBlock
 62
     0
370
    -2
100
AcDbMText
 10
0.3595656313819191
 20
10.93170272216018
 30
0.0
 40
1.5
 41
0.0
 46
0.0
 71
     5
 72
     1
  1
\A1;56.51
 11
6.123233995736766E-17
 21
1.0
 31
0.0
 73
     1
 44
1.0
  0
ENDBLK
  5
7FA
330
7F5
100
AcDbEntity
  8
0
100
AcDbBlockEnd
  0
BLOCK
  5
80E
330
80A
100
AcDbEntity
  8
0
100
AcDbBlockBegin
  2
*D9
 70
     1
 10
0.0
 20
0.0
 30
0.0
  3
*D9
  1

  0
POINT
  5
7FE
330
80A
100
AcDbEntity
  8
DEFPOINTS
  6
ByBlock
 62
     0
100
AcDbPoint
 10
15.13644883184537
 20
-17.32312979777984
 30
0.0
  0
POINT
  5
7FF
330
80A
100
AcDbEntity
  8
DEFPOINTS
  6
ByBlock
 62
     0
100
AcDbPoint
 10
15.14686534136538
 20
39.18653524210021
 30
0.0
  0
LINE
  5
800
330
80A
100
AcDbEntity
  8
0
  6
ByBlock
 62
     0
370
    -2
100
AcDbLine
 10
15.07394883184537
 20
-17.32312979777984
 30
0.0
 11
0.8998539062523321
 21
-17.32312979777984
 31
0.0
  0
LINE
  5
801
330
80A
100
AcDbEntity
  8
0
  6
ByBlock
 62
     0
370
    -2
100
AcDbLine
 10
15.08436534136538
 20
39.18653524210021
 30
0.0
 11
0.8998539062523321
 21
39.18653524210021
 31
0.0
  0
LINE
  5
802
330
80A
100
AcDbEntity
  8
0
  6
ByBlock
 62
     0
370
    -2
100
AcDbLine
 10
1.024853906252332
 20
-17.32312979777984
 30
0.0
 11
1.024853906252332
 21
8.641702722160183
 31
0.0
  0
LINE
  5
803
330
80A
100
AcDbEntity
  8
0
  6
ByBlock
 62
     0
370
    -2
100
AcDbLine
 10
1.024853906252332
 20
39.18653524210021
 30
0.0
 11
1.024853906252332
 21
13.22170272216018
 31
0.0
  0
INSERT
  5
804
330
80A
100
AcDbEntity
  8
0
  6
ByBlock
 62
     0
370
    -2
100
AcDbBlockReference
  2
_FILLED
 10
1.024853906252332
 20
-17.32312979777984
 30
0.0
 41
1.5
 42
1.5
 43
1.5
 50
270.0
  0
INSERT
  5
806
330
80A
100
AcDbEntity
  8
0
  6
ByBlock
 62
     0
370
    -2
100
AcDbBlockReference
  2
_FILLED
 10
1.024853906252332
 20
39.18653524210021
 30
0.0
 41
1.5
 42
1.5
 43
1.5
 50
90.0
  0
MTEXT
  5
808
330
80A
100
AcDbEntity
  8
0
  6
ByBlock
 62
     0
370
    -2
100
AcDbMText
 10
1.024853906252332
 20
10.93170272216018
 30
0.0
 40
1.5
 41
0.0
 46
0.0
 71
     5
 72
     1
  1
\A1;56.51
 11
6.123233995736766E-17
 21
1.0
 31
0.0
 73
     1
 44
1.0
  0
ENDBLK
  5
80F
330
80A
100
AcDbEntity
  8
0
100
AcDbBlockEnd
  0
BLOCK
  5
821
330
81D
100
AcDbEntity
  8
0
100
AcDbBlockBegin
  2
*D10
 70
     1
 10
0.0
 20
0.0
 30
0.0
  3
*D10
  1

  0
POINT
  5
811
330
81D
100
AcDbEntity
  8
DEFPOINTS
  6
ByBlock
 62
     0
100
AcDbPoint
 10
15.13644883184537
 20
-17.32312979777984
 30
0.0
  0
POINT
  5
812
330
81D
100
AcDbEntity
  8
DEFPOINTS
  6
ByBlock
 62
     0
100
AcDbPoint
 10
15.14686534136538
 20
39.18653524210021
 30
0.0
  0
LINE
  5
813
330
81D
100
AcDbEntity
  8
0
  6
ByBlock
 62
     0
370
    -2
100
AcDbLine
 10
15.07394883184537
 20
-17.32312979777984
 30
0.0
 11
0.8998539062523321
 21
-17.32312979777984
 31
0.0
  0
LINE
  5
814
330
81D
100
AcDbEntity
  8
0
  6
ByBlock
 62
     0
370
    -2
100
AcDbLine
 10
15.08436534136538
 20
39.18653524210021
 30
0.0
 11
0.8998539062523321
 21
39.18653524210021
 31
0.0
  0
LINE
  5
815
330
81D
100
AcDbEntity
  8
0
  6
ByBlock
 62
     0
370
    -2
100
AcDbLine
 10
1.024853906252332
 20
-17.32312979777984
 30
0.0
 11
1.024853906252332
 21
9.041702722160181
 31
0.0
  0
LINE
  5
816
330
81D
100
AcDbEntity
  8
0
  6
ByBlock
 62
     0
370
    -2
100
AcDbLine
 10
1.024853906252332
 20
39.18653524210021
 30
0.0
 11
1.024853906252332
 21
12.82170272216018
 31
0.0
  0
INSERT
  5
817
330
81D
100
AcDbEntity
  8
0
  6
ByBlock
 62
     0
370
    -2
100
AcDbBlockReference
  2
_FILLED
 10
1.024853906252332
 20
-17.32312979777984
 30
0.0
 41
1.5
 42
1.5
 43
1.5
 50
270.0
  0
INSERT
  5
819
330
81D
100
AcDbEntity
  8
0
  6
ByBlock
 62
     0
370
    -2
100
AcDbBlockReference
  2
_FILLED
 10
1.024853906252332
 20
39.18653524210021
 30
0.0
 41
1.5
 42
1.5
 43
1.5
 50
90.0
  0
MTEXT
  5
81B
330
81D
100
AcDbEntity
  8
0
  6
ByBlock
 62
     0
370
    -2
100
AcDbMText
 10
1.024853906252332
 20
10.93170272216018
 30
0.0
 40
1.5
 41
0.0
 46
0.0
 71
     5
 72
     1
  1
\A1;56.5
 11
6.123233995736766E-17
 21
1.0
 31
0.0
 73
     1
 44
1.0
  0
ENDBLK
  5
822
330
81D
100
AcDbEntity
  8
0
100
AcDbBlockEnd
  0
BLOCK
  5
835
330
831
100
AcDbEntity
  8
0
100
AcDbBlockBegin
  2
*D11
 70
     1
 10
0.0
 20
0.0
 30
0.0
  3
*D11
  1

  0
POINT
  5
825
330
831
100
AcDbEntity
  8
DEFPOINTS
  6
ByBlock
 62
     0
100
AcDbPoint
 10
66.80366874332537
 20
-17.49823312549981
 30
0.0
  0
POINT
  5
826
330
831
100
AcDbEntity
  8
DEFPOINTS
  6
ByBlock
 62
     0
100
AcDbPoint
 10
62.40366874222536
 20
-11.97403819727981
 30
0.0
  0
LINE
  5
827
330
831
100
AcDbEntity
  8
0
  6
ByBlock
 62
     0
370
    -2
100
AcDbLine
 10
66.80366874332537
 20
-17.56073312549981
 30
0.0
 11
66.80366874332537
 21
-21.0773510231138
 31
0.0
  0
LINE
  5
828
330
831
100
AcDbEntity
  8
0
  6
ByBlock
 62
     0
370
    -2
100
AcDbLine
 10
62.40366874222536
 20
-12.03653819727981
 30
0.0
 11
62.40366874222536
 21
-21.0773510231138
 31
0.0
  0
LINE
  5
829
330
831
100
AcDbEntity
  8
0
  6
ByBlock
 62
     0
370
    -2
100
AcDbLine
 10
66.80366874332537
 20
-20.9523510231138
 30
0.0
 11
69.80366874332537
 21
-20.9523510231138
 31
0.0
  0
LINE
  5
82A
330
831
100
AcDbEntity
  8
0
  6
ByBlock
 62
     0
370
    -2
100
AcDbLine
 10
62.40366874222536
 20
-20.9523510231138
 30
0.0
 11
59.40366874222536
 21
-20.9523510231138
 31
0.0
  0
INSERT
  5
82B
330
831
100
AcDbEntity
  8
0
  6
ByBlock
 62
     0
370
    -2
100
AcDbBlockReference
  2
_FILLED
 10
66.80366874332537
 20
-20.9523510231138
 30
0.0
 41
1.5
 42
1.5
 43
1.5
 50
180.0
  0
INSERT
  5
82D
330
831
100
AcDbEntity
  8
0
  6
ByBlock
 62
     0
370
    -2
100
AcDbBlockReference
  2
_FILLED
 10
62.40366874222536
 20
-20.9523510231138
 30
0.0
 41
1.5
 42
1.5
 43
1.5
  0
MTEXT
  5
82F
330
831
100
AcDbEntity
  8
0
  6
ByBlock
 62
     0
370
    -2
100
AcDbMText
 10
64.60366874277537
 20
-20.9523510231138
 30
0.0
 40
1.5
 41
0.0
 46
0.0
 71
     5
 72
     1
  1
\A1;4.40
 73
     1
 44
1.0
  0
ENDBLK
  5
836
330
831
100
AcDbEntity
  8
0
100
AcDbBlockEnd
  0
BLOCK
  5
84B
330
847
100
AcDbEntity
  8
0
100
AcDbBlockBegin
  2
*D12
 70
     1
 10
0.0
 20
0.0
 30
0.0
  3
*D12
  1

  0
POINT
  5
83B
330
847
100
AcDbEntity
  8
DEFPOINTS
  6
ByBlock
 62
     0
100
AcDbPoint
 10
72.80366874228537
 20
-17.49823312549981
 30
0.0
  0
POINT
  5
83C
330
847
100
AcDbEntity
  8
DEFPOINTS
  6
ByBlock
 62
     0
100
AcDbPoint
 10
62.40366874222536
 20
-12.03653819727981
 30
0.0
  0
LINE
  5
83D
330
847
100
AcDbEntity
  8
0
  6
ByBlock
 62
     0
370
    -2
100
AcDbLine
 10
72.80366874228537
 20
-17.56073312549981
 30
0.0
 11
72.80366874228537
 21
-24.40355529438185
 31
0.0
  0
LINE
  5
83E
330
847
100
AcDbEntity
  8
0
  6
ByBlock
 62
     0
370
    -2
100
AcDbLine
 10
62.40366874222536
 20
-12.09903819727981
 30
0.0
 11
62.40366874222536
 21
-24.40355529438185
 31
0.0
  0
LINE
  5
83F
330
847
100
AcDbEntity
  8
0
  6
ByBlock
 62
     0
370
    -2
100
AcDbLine
 10
72.80366874228537
 20
-24.27855529438185
 30
0.0
 11
69.69366874225537
 21
-24.27855529438185
 31
0.0
  0
LINE
  5
840
330
847
100
AcDbEntity
  8
0
  6
ByBlock
 62
     0
370
    -2
100
AcDbLine
 10
62.40366874222536
 20
-24.27855529438185
 30
0.0
 11
65.51366874225536
 21
-24.27855529438185
 31
0.0
  0
INSERT
  5
841
330
847
100
AcDbEntity
  8
0
  6
ByBlock
 62
     0
370
    -2
100
AcDbBlockReference
  2
_FILLED
 10
72.80366874228537
 20
-24.27855529438185
 30
0.0
 41
1.5
 42
1.5
 43
1.5
  0
INSERT
  5
843
330
847
100
AcDbEntity
  8
0
  6
ByBlock
 62
     0
370
    -2
100
AcDbBlockReference
  2
_FILLED
 10
62.40366874222536
 20
-24.27855529438185
 30
0.0
 41
1.5
 42
1.5
 43
1.5
 50
180.0
  0
MTEXT
  5
845
330
847
100
AcDbEntity
  8
0
  6
ByBlock
 62
     0
370
    -2
100
AcDbMText
 10
67.60366874225537
 20
-24.27855529438185
 30
0.0
 40
1.5
 41
0.0
 46
0.0
 71
     5
 72
     1
  1
\A1;10.40
 73
     1
 44
1.0
  0
ENDBLK
  5
84C
330
847
100
AcDbEntity
  8
0
100
AcDbBlockEnd
  0
BLOCK
  5
86A
330
866
100
AcDbEntity
  8
0
100
AcDbBlockBegin
  2
*D13
 70
     1
 10
0.0
 20
0.0
 30
0.0
  3
*D13
  1

  0
POINT
  5
85A
330
866
100
AcDbEntity
  8
DEFPOINTS
  6
ByBlock
 62
     0
100
AcDbPoint
 10
15.64640350408538
 20
36.68644557884016
 30
0.0
  0
POINT
  5
85B
330
866
100
AcDbEntity
  8
DEFPOINTS
  6
ByBlock
 62
     0
100
AcDbPoint
 10
44.64640322558537
 20
36.69045724214016
 30
0.0
  0
LINE
  5
85C
330
866
100
AcDbEntity
  8
0
  6
ByBlock
 62
     0
370
    -2
100
AcDbLine
 10
15.64640350408538
 20
36.74894557884016
 30
0.0
 11
15.64640350408538
 21
49.14340430121353
 31
0.0
  0
LINE
  5
85D
330
866
100
AcDbEntity
  8
0
  6
ByBlock
 62
     0
370
    -2
100
AcDbLine
 10
44.64640322558537
 20
36.75295724214016
 30
0.0
 11
44.64640322558537
 21
49.14340430121353
 31
0.0
  0
LINE
  5
85E
330
866
100
AcDbEntity
  8
0
  6
ByBlock
 62
     0
370
    -2
100
AcDbLine
 10
15.64640350408538
 20
49.01840430121353
 30
0.0
 11
27.85640336483538
 21
49.01840430121353
 31
0.0
  0
LINE
  5
85F
330
866
100
AcDbEntity
  8
0
  6
ByBlock
 62
     0
370
    -2
100
AcDbLine
 10
44.64640322558537
 20
49.01840430121353
 30
0.0
 11
32.43640336483538
 21
49.01840430121353
 31
0.0
  0
INSERT
  5
860
330
866
100
AcDbEntity
  8
0
  6
ByBlock
 62
     0
370
    -2
100
AcDbBlockReference
  2
_FILLED
 10
15.64640350408538
 20
49.01840430121353
 30
0.0
 41
1.5
 42
1.5
 43
1.5
 50
180.0
  0
INSERT
  5
862
330
866
100
AcDbEntity
  8
0
  6
ByBlock
 62
     0
370
    -2
100
AcDbBlockReference
  2
_FILLED
 10
44.64640322558537
 20
49.01840430121353
 30
0.0
 41
1.5
 42
1.5
 43
1.5
  0
MTEXT
  5
864
330
866
100
AcDbEntity
  8
0
  6
ByBlock
 62
     0
370
    -2
100
AcDbMText
 10
30.14640336483538
 20
49.01840430121353
 30
0.0
 40
1.5
 41
0.0
 46
0.0
 71
     5
 72
     1
  1
\A1;29.00
 73
     1
 44
1.0
  0
ENDBLK
  5
86B
330
866
100
AcDbEntity
  8
0
100
AcDbBlockEnd
  0
BLOCK
  5
87F
330
87B
100
AcDbEntity
  8
0
100
AcDbBlockBegin
  2
*D14
 70
     1
 10
0.0
 20
0.0
 30
0.0
  3
*D14
  1

  0
POINT
  5
86F
330
87B
100
AcDbEntity
  8
DEFPOINTS
  6
ByBlock
 62
     0
100
AcDbPoint
 10
13.1464981737054
 20
33.85596180116013
 30
0.0
  0
POINT
  5
870
330
87B
100
AcDbEntity
  8
DEFPOINTS
  6
ByBlock
 62
     0
100
AcDbPoint
 10
47.14649817458539
 20
33.85596180116013
 30
0.0
  0
LINE
  5
871
330
87B
100
AcDbEntity
  8
0
  6
ByBlock
 62
     0
370
    -2
100
AcDbLine
 10
13.1464981737054
 20
33.91846180116013
 30
0.0
 11
13.1464981737054
 21
52.58929790210066
 31
0.0
  0
LINE
  5
872
330
87B
100
AcDbEntity
  8
0
  6
ByBlock
 62
     0
370
    -2
100
AcDbLine
 10
47.14649817458539
 20
33.91846180116013
 30
0.0
 11
47.14649817458539
 21
52.58929790210066
 31
0.0
  0
LINE
  5
873
330
87B
100
AcDbEntity
  8
0
  6
ByBlock
 62
     0
370
    -2
100
AcDbLine
 10
13.1464981737054
 20
52.46429790210066
 30
0.0
 11
23.55649817414539
 21
52.46429790210066
 31
0.0
  0
LINE
  5
874
330
87B
100
AcDbEntity
  8
0
  6
ByBlock
 62
     0
370
    -2
100
AcDbLine
 10
47.14649817458539
 20
52.46429790210066
 30
0.0
 11
36.7364981741454
 21
52.46429790210066
 31
0.0
  0
INSERT
  5
875
330
87B
100
AcDbEntity
  8
0
  6
ByBlock
 62
     0
370
    -2
100
AcDbBlockReference
  2
_FILLED
 10
13.1464981737054
 20
52.46429790210066
 30
0.0
 41
1.5
 42
1.5
 43
1.5
 50
180.0
  0
INSERT
  5
877
330
87B
100
AcDbEntity
  8
0
  6
ByBlock
 62
     0
370
    -2
100
AcDbBlockReference
  2
_FILLED
 10
47.14649817458539
 20
52.46429790210066
 30
0.0
 41
1.5
 42
1.5
 43
1.5
  0
MTEXT
  5
879
330
87B
100
AcDbEntity
  8
0
  6
ByBlock
 62
     0
370
    -2
100
AcDbMText
 10
30.14649817414539
 20
52.46429790210066
 30
0.0
 40
1.5
 41
0.0
 46
0.0
 71
     5
 72
     1
  1
\A1;34.00%%p0.2 LCM
 73
     1
 44
1.0
  0
ENDBLK
  5
880
330
87B
100
AcDbEntity
  8
0
100
AcDbBlockEnd
  0
BLOCK
  5
893
330
88F
100
AcDbEntity
  8
0
100
AcDbBlockBegin
  2
*D15
 70
     1
 10
0.0
 20
0.0
 30
0.0
  3
*D15
  1

  0
POINT
  5
883
330
88F
100
AcDbEntity
  8
DEFPOINTS
  6
ByBlock
 62
     0
100
AcDbPoint
 10
44.64640322558537
 20
36.69045724214016
 30
0.0
  0
POINT
  5
884
330
88F
100
AcDbEntity
  8
DEFPOINTS
  6
ByBlock
 62
     0
100
AcDbPoint
 10
44.64640322558537
 20
-14.80954275739981
 30
0.0
  0
LINE
  5
885
330
88F
100
AcDbEntity
  8
0
  6
ByBlock
 62
     0
370
    -2
100
AcDbLine
 10
44.70890322558537
 20
36.69045724214016
 30
0.0
 11
51.42609160199861
 21
36.69045724214016
 31
0.0
  0
LINE
  5
886
330
88F
100
AcDbEntity
  8
0
  6
ByBlock
 62
     0
370
    -2
100
AcDbLine
 10
44.70890322558537
 20
-14.80954275739981
 30
0.0
 11
51.42609160199861
 21
-14.80954275739981
 31
0.0
  0
LINE
  5
887
330
88F
100
AcDbEntity
  8
0
  6
ByBlock
 62
     0
370
    -2
100
AcDbLine
 10
51.30109160199861
 20
36.69045724214016
 30
0.0
 11
51.30109160199861
 21
13.13045724237017
 31
0.0
  0
LINE
  5
888
330
88F
100
AcDbEntity
  8
0
  6
ByBlock
 62
     0
370
    -2
100
AcDbLine
 10
51.30109160199861
 20
-14.80954275739981
 30
0.0
 11
51.30109160199861
 21
8.750457242370171
 31
0.0
  0
INSERT
  5
889
330
88F
100
AcDbEntity
  8
0
  6
ByBlock
 62
     0
370
    -2
100
AcDbBlockReference
  2
_FILLED
 10
51.30109160199861
 20
36.69045724214016
 30
0.0
 41
1.5
 42
1.5
 43
1.5
 50
90.0
  0
INSERT
  5
88B
330
88F
100
AcDbEntity
  8
0
  6
ByBlock
 62
     0
370
    -2
100
AcDbBlockReference
  2
_FILLED
 10
51.30109160199861
 20
-14.80954275739981
 30
0.0
 41
1.5
 42
1.5
 43
1.5
 50
270.0
  0
MTEXT
  5
88D
330
88F
100
AcDbEntity
  8
0
  6
ByBlock
 62
     0
370
    -2
100
AcDbMText
 10
51.30109160199861
 20
10.94045724237017
 30
0.0
 40
1.5
 41
0.0
 46
0.0
 71
     5
 72
     1
  1
\A1;51.50
 11
6.123233995736766E-17
 21
1.0
 31
0.0
 73
     1
 44
1.0
  0
ENDBLK
  5
894
330
88F
100
AcDbEntity
  8
0
100
AcDbBlockEnd
  0
BLOCK
  5
8A9
330
8A5
100
AcDbEntity
  8
0
100
AcDbBlockBegin
  2
*D16
 70
     1
 10
0.0
 20
0.0
 30
0.0
  3
*D16
  1

  0
POINT
  5
899
330
8A5
100
AcDbEntity
  8
DEFPOINTS
  6
ByBlock
 62
     0
100
AcDbPoint
 10
100.1322596425254
 20
-14.72291042621981
 30
0.0
  0
POINT
  5
89A
330
8A5
100
AcDbEntity
  8
DEFPOINTS
  6
ByBlock
 62
     0
100
AcDbPoint
 10
117.9122593402654
 20
-14.71963301087982
 30
0.0
  0
LINE
  5
89B
330
8A5
100
AcDbEntity
  8
0
  6
ByBlock
 62
     0
370
    -2
100
AcDbLine
 10
100.1322596425254
 20
-14.78541042621981
 30
0.0
 11
100.1322596425254
 21
-24.55273327626944
 31
0.0
  0
LINE
  5
89C
330
8A5
100
AcDbEntity
  8
0
  6
ByBlock
 62
     0
370
    -2
100
AcDbLine
 10
117.9122593402654
 20
-14.78213301087982
 30
0.0
 11
117.9122593402654
 21
-24.55273327626944
 31
0.0
  0
LINE
  5
89D
330
8A5
100
AcDbEntity
  8
0
  6
ByBlock
 62
     0
370
    -2
100
AcDbLine
 10
100.1322596425254
 20
-24.42773327626944
 30
0.0
 11
106.7322594913954
 21
-24.42773327626944
 31
0.0
  0
LINE
  5
89E
330
8A5
100
AcDbEntity
  8
0
  6
ByBlock
 62
     0
370
    -2
100
AcDbLine
 10
117.9122593402654
 20
-24.42773327626944
 30
0.0
 11
111.3122594913954
 21
-24.42773327626944
 31
0.0
  0
INSERT
  5
89F
330
8A5
100
AcDbEntity
  8
0
  6
ByBlock
 62
     0
370
    -2
100
AcDbBlockReference
  2
_FILLED
 10
100.1322596425254
 20
-24.42773327626944
 30
0.0
 41
1.5
 42
1.5
 43
1.5
 50
180.0
  0
INSERT
  5
8A1
330
8A5
100
AcDbEntity
  8
0
  6
ByBlock
 62
     0
370
    -2
100
AcDbBlockReference
  2
_FILLED
 10
117.9122593402654
 20
-24.42773327626944
 30
0.0
 41
1.5
 42
1.5
 43
1.5
  0
MTEXT
  5
8A3
330
8A5
100
AcDbEntity
  8
0
  6
ByBlock
 62
     0
370
    -2
100
AcDbMText
 10
109.0222594913954
 20
-24.42773327626944
 30
0.0
 40
1.5
 41
0.0
 46
0.0
 71
     5
 72
     1
  1
\A1;17.78
 73
     1
 44
1.0
  0
ENDBLK
  5
8AA
330
8A5
100
AcDbEntity
  8
0
100
AcDbBlockEnd
  0
BLOCK
  5
8BF
330
8BB
100
AcDbEntity
  8
0
100
AcDbBlockBegin
  2
*D17
 70
     1
 10
0.0
 20
0.0
 30
0.0
  3
*D17
  1

  0
POINT
  5
8AF
330
8BB
100
AcDbEntity
  8
DEFPOINTS
  6
ByBlock
 62
     0
100
AcDbPoint
 10
100.1322596425254
 20
-14.78541042621981
 30
0.0
  0
POINT
  5
8B0
330
8BB
100
AcDbEntity
  8
DEFPOINTS
  6
ByBlock
 62
     0
100
AcDbPoint
 10
102.6722595993454
 20
-14.72244222293983
 30
0.0
  0
LINE
  5
8B1
330
8BB
100
AcDbEntity
  8
0
  6
ByBlock
 62
     0
370
    -2
100
AcDbLine
 10
100.1322596425254
 20
-14.84791042621981
 30
0.0
 11
100.1322596425254
 21
-20.62825403930543
 31
0.0
  0
LINE
  5
8B2
330
8BB
100
AcDbEntity
  8
0
  6
ByBlock
 62
     0
370
    -2
100
AcDbLine
 10
102.6722595993454
 20
-14.78494222293983
 30
0.0
 11
102.6722595993454
 21
-20.62825403930543
 31
0.0
  0
LINE
  5
8B3
330
8BB
100
AcDbEntity
  8
0
  6
ByBlock
 62
     0
370
    -2
100
AcDbLine
 10
100.1322596425254
 20
-20.50325403930543
 30
0.0
 11
97.13225964252538
 21
-20.50325403930543
 31
0.0
  0
LINE
  5
8B4
330
8BB
100
AcDbEntity
  8
0
  6
ByBlock
 62
     0
370
    -2
100
AcDbLine
 10
102.6722595993454
 20
-20.50325403930543
 30
0.0
 11
105.6722595993454
 21
-20.50325403930543
 31
0.0
  0
INSERT
  5
8B5
330
8BB
100
AcDbEntity
  8
0
  6
ByBlock
 62
     0
370
    -2
100
AcDbBlockReference
  2
_FILLED
 10
100.1322596425254
 20
-20.50325403930543
 30
0.0
 41
1.5
 42
1.5
 43
1.5
  0
INSERT
  5
8B7
330
8BB
100
AcDbEntity
  8
0
  6
ByBlock
 62
     0
370
    -2
100
AcDbBlockReference
  2
_FILLED
 10
102.6722595993454
 20
-20.50325403930543
 30
0.0
 41
1.5
 42
1.5
 43
1.5
 50
180.0
  0
MTEXT
  5
8B9
330
8BB
100
AcDbEntity
  8
0
  6
ByBlock
 62
     0
370
    -2
100
AcDbMText
 10
108.7622595993454
 20
-20.50325403930543
 30
0.0
 40
1.5
 41
0.0
 46
0.0
 71
     5
 72
     1
  1
\A1;7*2.54
 73
     1
 44
1.0
  0
ENDBLK
  5
8C0
330
8BB
100
AcDbEntity
  8
0
100
AcDbBlockEnd
  0
BLOCK
  5
8D5
330
8D1
100
AcDbEntity
  8
0
100
AcDbBlockBegin
  2
*D18
 70
     1
 10
0.0
 20
0.0
 30
0.0
  3
*D18
  1

  0
POINT
  5
8C5
330
8D1
100
AcDbEntity
  8
DEFPOINTS
  6
ByBlock
 62
     0
100
AcDbPoint
 10
117.9122593402654
 20
-14.71963301087982
 30
0.0
  0
POINT
  5
8C6
330
8D1
100
AcDbEntity
  8
DEFPOINTS
  6
ByBlock
 62
     0
100
AcDbPoint
 10
117.9118993116519
 20
-17.32225237084611
 30
0.0
  0
LINE
  5
8C7
330
8D1
100
AcDbEntity
  8
0
  6
ByBlock
 62
     0
370
    -2
100
AcDbLine
 10
117.9747593402654
 20
-14.71963301087982
 30
0.0
 11
120.2372754678678
 21
-14.71963301087982
 31
0.0
  0
LINE
  5
8C8
330
8D1
100
AcDbEntity
  8
0
  6
ByBlock
 62
     0
370
    -2
100
AcDbLine
 10
117.9743993116519
 20
-17.32225237084611
 30
0.0
 11
120.2372754678678
 21
-17.32225237084611
 31
0.0
  0
LINE
  5
8C9
330
8D1
100
AcDbEntity
  8
0
  6
ByBlock
 62
     0
370
    -2
100
AcDbLine
 10
120.1122754678678
 20
-14.71963301087982
 30
0.0
 11
120.1122754678678
 21
-11.71963301087982
 31
0.0
  0
LINE
  5
8CA
330
8D1
100
AcDbEntity
  8
0
  6
ByBlock
 62
     0
370
    -2
100
AcDbLine
 10
120.1122754678678
 20
-17.32225237084611
 30
0.0
 11
120.1122754678678
 21
-20.32225237084611
 31
0.0
  0
INSERT
  5
8CB
330
8D1
100
AcDbEntity
  8
0
  6
ByBlock
 62
     0
370
    -2
100
AcDbBlockReference
  2
_FILLED
 10
120.1122754678678
 20
-14.71963301087982
 30
0.0
 41
1.5
 42
1.5
 43
1.5
 50
270.0
  0
INSERT
  5
8CD
330
8D1
100
AcDbEntity
  8
0
  6
ByBlock
 62
     0
370
    -2
100
AcDbBlockReference
  2
_FILLED
 10
120.1122754678678
 20
-17.32225237084611
 30
0.0
 41
1.5
 42
1.5
 43
1.5
 50
90.0
  0
MTEXT
  5
8CF
330
8D1
100
AcDbEntity
  8
0
  6
ByBlock
 62
     0
370
    -2
100
AcDbMText
 10
120.1122754678678
 20
-22.11225237084611
 30
0.0
 40
1.5
 41
0.0
 46
0.0
 71
     5
 72
     1
  1
\A1;2.60
 11
6.123233995736766E-17
 21
1.0
 31
0.0
 73
     1
 44
1.0
  0
ENDBLK
  5
8D6
330
8D1
100
AcDbEntity
  8
0
100
AcDbBlockEnd
  0
BLOCK
  5
8EB
330
8E7
100
AcDbEntity
  8
0
100
AcDbBlockBegin
  2
*D19
 70
     1
 10
0.0
 20
0.0
 30
0.0
  3
*D19
  1

  0
POINT
  5
8DB
330
8E7
100
AcDbEntity
  8
DEFPOINTS
  6
ByBlock
 62
     0
100
AcDbPoint
 10
102.2540534888454
 20
25.48957709505017
 30
0.0
  0
POINT
  5
8DC
330
8E7
100
AcDbEntity
  8
DEFPOINTS
  6
ByBlock
 62
     0
100
AcDbPoint
 10
104.2540534702954
 20
25.48930042809016
 30
0.0
  0
LINE
  5
8DD
330
8E7
100
AcDbEntity
  8
0
  6
ByBlock
 62
     0
370
    -2
100
AcDbLine
 10
102.2540534888454
 20
25.42707709505017
 30
0.0
 11
102.2540534888454
 21
22.91767527882364
 31
0.0
  0
LINE
  5
8DE
330
8E7
100
AcDbEntity
  8
0
  6
ByBlock
 62
     0
370
    -2
100
AcDbLine
 10
104.2540534702954
 20
25.42680042809016
 30
0.0
 11
104.2540534702954
 21
22.91767527882364
 31
0.0
  0
LINE
  5
8DF
330
8E7
100
AcDbEntity
  8
0
  6
ByBlock
 62
     0
370
    -2
100
AcDbLine
 10
102.2540534888454
 20
23.04267527882364
 30
0.0
 11
99.25405348884537
 21
23.04267527882364
 31
0.0
  0
LINE
  5
8E0
330
8E7
100
AcDbEntity
  8
0
  6
ByBlock
 62
     0
370
    -2
100
AcDbLine
 10
104.2540534702954
 20
23.04267527882364
 30
0.0
 11
107.2540534702954
 21
23.04267527882364
 31
0.0
  0
INSERT
  5
8E1
330
8E7
100
AcDbEntity
  8
0
  6
ByBlock
 62
     0
370
    -2
100
AcDbBlockReference
  2
_FILLED
 10
102.2540534888454
 20
23.04267527882364
 30
0.0
 41
1.5
 42
1.5
 43
1.5
  0
INSERT
  5
8E3
330
8E7
100
AcDbEntity
  8
0
  6
ByBlock
 62
     0
370
    -2
100
AcDbBlockReference
  2
_FILLED
 10
104.2540534702954
 20
23.04267527882364
 30
0.0
 41
1.5
 42
1.5
 43
1.5
 50
180.0
  0
MTEXT
  5
8E5
330
8E7
100
AcDbEntity
  8
0
  6
ByBlock
 62
     0
370
    -2
100
AcDbMText
 10
108.9440534702954
 20
23.04267527882364
 30
0.0
 40
1.5
 41
0.0
 46
0.0
 71
     5
 72
     1
  1
\A1;2.00
 73
     1
 44
1.0
  0
ENDBLK
  5
8EC
330
8E7
100
AcDbEntity
  8
0
100
AcDbBlockEnd
  0
BLOCK
  5
901
330
8FD
100
AcDbEntity
  8
0
100
AcDbBlockBegin
  2
*D20
 70
     1
 10
0.0
 20
0.0
 30
0.0
  3
*D20
  1

  0
LINE
  5
8F3
330
8FD
100
AcDbEntity
  8
0
  6
ByBlock
 62
     0
370
    -2
100
AcDbLine
 10
44.94849817458533
 20
-15.31897839201462
 30
0.0
 11
45.34449817458533
 21
-15.31897839201462
 31
0.0
  0
LINE
  5
8F4
330
8FD
100
AcDbEntity
  8
0
  6
ByBlock
 62
     0
370
    -2
100
AcDbLine
 10
45.14649817458533
 20
-15.12097839201462
 30
0.0
 11
45.14649817458533
 21
-15.51697839201462
 31
0.0
  0
LINE
  5
8F5
330
8FD
100
AcDbEntity
  8
0
  6
ByBlock
 62
     0
370
    -2
100
AcDbLine
 10
46.2917261228275
 20
-16.95862864330754
 30
0.0
 11
48.8566480395749
 21
-20.630888713276
 31
0.0
  0
LINE
  5
8F6
330
8FD
100
AcDbEntity
  8
0
  6
ByBlock
 62
     0
370
    -2
100
AcDbLine
 10
48.8566480395749
 20
-20.630888713276
 30
0.0
 11
50.3566480395749
 21
-20.630888713276
 31
0.0
  0
INSERT
  5
8F7
330
8FD
100
AcDbEntity
  8
0
  6
ByBlock
 62
     0
370
    -2
100
AcDbBlockReference
  2
_FILLED
 10
46.2917261228275
 20
-16.95862864330754
 30
0.0
 41
1.5
 42
1.5
 43
1.5
 50
124.9327080103493
  0
MTEXT
  5
8F9
330
8FD
100
AcDbEntity
  8
0
  6
ByBlock
 62
     0
370
    -2
100
AcDbMText
 10
53.8466480395749
 20
-20.630888713276
 30
0.0
 40
1.5
 41
0.0
 46
0.0
 71
     5
 72
     1
  1
\A1;4*R2.00
 73
     1
 44
1.0
  0
POINT
  5
8FA
330
8FD
100
AcDbEntity
  8
DEFPOINTS
  6
ByBlock
 62
     0
100
AcDbPoint
 10
45.14649817458533
 20
-15.31897839201462
 30
0.0
  0
POINT
  5
8FB
330
8FD
100
AcDbEntity
  8
DEFPOINTS
  6
ByBlock
 62
     0
100
AcDbPoint
 10
46.2917261228275
 20
-16.95862864330754
 30
0.0
  0
ENDBLK
  5
902
330
8FD
100
AcDbEntity
  8
0
100
AcDbBlockEnd
  0
BLOCK
  5
917
330
913
100
AcDbEntity
  8
0
100
AcDbBlockBegin
  2
*D21
 70
     1
 10
0.0
 20
0.0
 30
0.0
  3
*D21
  1

  0
POINT
  5
907
330
913
100
AcDbEntity
  8
DEFPOINTS
  6
ByBlock
 62
     0
100
AcDbPoint
 10
66.80366874332537
 20
39.37513594694013
 30
0.0
  0
POINT
  5
908
330
913
100
AcDbEntity
  8
DEFPOINTS
  6
ByBlock
 62
     0
100
AcDbPoint
 10
62.40366874222536
 20
33.85596180116013
 30
0.0
  0
LINE
  5
909
330
913
100
AcDbEntity
  8
0
  6
ByBlock
 62
     0
370
    -2
100
AcDbLine
 10
66.80366874332537
 20
39.43763594694013
 30
0.0
 11
66.80366874332537
 21
44.34537693817376
 31
0.0
  0
LINE
  5
90A
330
913
100
AcDbEntity
  8
0
  6
ByBlock
 62
     0
370
    -2
100
AcDbLine
 10
62.40366874222536
 20
33.91846180116013
 30
0.0
 11
62.40366874222536
 21
44.34537693817376
 31
0.0
  0
LINE
  5
90B
330
913
100
AcDbEntity
  8
0
  6
ByBlock
 62
     0
370
    -2
100
AcDbLine
 10
66.80366874332537
 20
44.22037693817376
 30
0.0
 11
69.80366874332537
 21
44.22037693817376
 31
0.0
  0
LINE
  5
90C
330
913
100
AcDbEntity
  8
0
  6
ByBlock
 62
     0
370
    -2
100
AcDbLine
 10
62.40366874222536
 20
44.22037693817376
 30
0.0
 11
59.40366874222536
 21
44.22037693817376
 31
0.0
  0
INSERT
  5
90D
330
913
100
AcDbEntity
  8
0
  6
ByBlock
 62
     0
370
    -2
100
AcDbBlockReference
  2
_FILLED
 10
66.80366874332537
 20
44.22037693817376
 30
0.0
 41
1.5
 42
1.5
 43
1.5
 50
180.0
  0
INSERT
  5
90F
330
913
100
AcDbEntity
  8
0
  6
ByBlock
 62
     0
370
    -2
100
AcDbBlockReference
  2
_FILLED
 10
62.40366874222536
 20
44.22037693817376
 30
0.0
 41
1.5
 42
1.5
 43
1.5
  0
MTEXT
  5
911
330
913
100
AcDbEntity
  8
0
  6
ByBlock
 62
     0
370
    -2
100
AcDbMText
 10
64.60366874277537
 20
44.22037693817376
 30
0.0
 40
1.5
 41
0.0
 46
0.0
 71
     5
 72
     1
  1
\A1;4.40
 73
     1
 44
1.0
  0
ENDBLK
  5
918
330
913
100
AcDbEntity
  8
0
100
AcDbBlockEnd
  0
BLOCK
  5
92D
330
929
100
AcDbEntity
  8
0
100
AcDbBlockBegin
  2
*D22
 70
     1
 10
0.0
 20
0.0
 30
0.0
  3
*D22
  1

  0
POINT
  5
91D
330
929
100
AcDbEntity
  8
DEFPOINTS
  6
ByBlock
 62
     0
100
AcDbPoint
 10
72.80366874228537
 20
39.37513594694013
 30
0.0
  0
POINT
  5
91E
330
929
100
AcDbEntity
  8
DEFPOINTS
  6
ByBlock
 62
     0
100
AcDbPoint
 10
62.40366874222536
 20
33.85596180116013
 30
0.0
  0
LINE
  5
91F
330
929
100
AcDbEntity
  8
0
  6
ByBlock
 62
     0
370
    -2
100
AcDbLine
 10
72.80366874228537
 20
39.43763594694013
 30
0.0
 11
72.80366874228537
 21
49.09666175286164
 31
0.0
  0
LINE
  5
920
330
929
100
AcDbEntity
  8
0
  6
ByBlock
 62
     0
370
    -2
100
AcDbLine
 10
62.40366874222536
 20
33.91846180116013
 30
0.0
 11
62.40366874222536
 21
49.09666175286164
 31
0.0
  0
LINE
  5
921
330
929
100
AcDbEntity
  8
0
  6
ByBlock
 62
     0
370
    -2
100
AcDbLine
 10
72.80366874228537
 20
48.97166175286164
 30
0.0
 11
69.69366874225537
 21
48.97166175286164
 31
0.0
  0
LINE
  5
922
330
929
100
AcDbEntity
  8
0
  6
ByBlock
 62
     0
370
    -2
100
AcDbLine
 10
62.40366874222536
 20
48.97166175286164
 30
0.0
 11
65.51366874225536
 21
48.97166175286164
 31
0.0
  0
INSERT
  5
923
330
929
100
AcDbEntity
  8
0
  6
ByBlock
 62
     0
370
    -2
100
AcDbBlockReference
  2
_FILLED
 10
72.80366874228537
 20
48.97166175286164
 30
0.0
 41
1.5
 42
1.5
 43
1.5
  0
INSERT
  5
925
330
929
100
AcDbEntity
  8
0
  6
ByBlock
 62
     0
370
    -2
100
AcDbBlockReference
  2
_FILLED
 10
62.40366874222536
 20
48.97166175286164
 30
0.0
 41
1.5
 42
1.5
 43
1.5
 50
180.0
  0
MTEXT
  5
927
330
929
100
AcDbEntity
  8
0
  6
ByBlock
 62
     0
370
    -2
100
AcDbMText
 10
67.60366874225537
 20
48.97166175286164
 30
0.0
 40
1.5
 41
0.0
 46
0.0
 71
     5
 72
     1
  1
\A1;10.40
 73
     1
 44
1.0
  0
ENDBLK
  5
92E
330
929
100
AcDbEntity
  8
0
100
AcDbBlockEnd
  0
BLOCK
  5
942
330
93E
100
AcDbEntity
  8
0
100
AcDbBlockBegin
  2
*D23
 70
     1
 10
0.0
 20
0.0
 30
0.0
  3
*D23
  1

  0
POINT
  5
932
330
93E
100
AcDbEntity
  8
DEFPOINTS
  6
ByBlock
 62
     0
100
AcDbPoint
 10
73.08469171372298
 20
39.37513594694013
 30
0.0
  0
POINT
  5
933
330
93E
100
AcDbEntity
  8
DEFPOINTS
  6
ByBlock
 62
     0
100
AcDbPoint
 10
68.68469171262296
 20
33.85596180116013
 30
0.0
  0
LINE
  5
934
330
93E
100
AcDbEntity
  8
0
  6
ByBlock
 62
     0
370
    -2
100
AcDbLine
 10
73.08469171372298
 20
39.43763594694013
 30
0.0
 11
73.08469171372298
 21
44.34537693817376
 31
0.0
  0
LINE
  5
935
330
93E
100
AcDbEntity
  8
0
  6
ByBlock
 62
     0
370
    -2
100
AcDbLine
 10
68.68469171262296
 20
33.91846180116013
 30
0.0
 11
68.68469171262296
 21
44.34537693817376
 31
0.0
  0
LINE
  5
936
330
93E
100
AcDbEntity
  8
0
  6
ByBlock
 62
     0
370
    -2
100
AcDbLine
 10
73.08469171372298
 20
44.22037693817376
 30
0.0
 11
76.08469171372298
 21
44.22037693817376
 31
0.0
  0
LINE
  5
937
330
93E
100
AcDbEntity
  8
0
  6
ByBlock
 62
     0
370
    -2
100
AcDbLine
 10
68.68469171262296
 20
44.22037693817376
 30
0.0
 11
65.68469171262296
 21
44.22037693817376
 31
0.0
  0
INSERT
  5
938
330
93E
100
AcDbEntity
  8
0
  6
ByBlock
 62
     0
370
    -2
100
AcDbBlockReference
  2
_FILLED
 10
73.08469171372298
 20
44.22037693817376
 30
0.0
 41
1.5
 42
1.5
 43
1.5
 50
180.0
  0
INSERT
  5
93A
330
93E
100
AcDbEntity
  8
0
  6
ByBlock
 62
     0
370
    -2
100
AcDbBlockReference
  2
_FILLED
 10
68.68469171262296
 20
44.22037693817376
 30
0.0
 41
1.5
 42
1.5
 43
1.5
  0
MTEXT
  5
93C
330
93E
100
AcDbEntity
  8
0
  6
ByBlock
 62
     0
370
    -2
100
AcDbMText
 10
70.88469171317297
 20
44.22037693817376
 30
0.0
 40
1.5
 41
0.0
 46
0.0
 71
     5
 72
     1
  1
\A1;4.40
 73
     1
 44
1.0
  0
ENDBLK
  5
943
330
93E
100
AcDbEntity
  8
0
100
AcDbBlockEnd
  0
BLOCK
  5
955
330
951
100
AcDbEntity
  8
0
100
AcDbBlockBegin
  2
*D24
 70
     1
 10
0.0
 20
0.0
 30
0.0
  3
*D24
  1

  0
POINT
  5
945
330
951
100
AcDbEntity
  8
DEFPOINTS
  6
ByBlock
 62
     0
100
AcDbPoint
 10
79.08469171268297
 20
39.37513594694013
 30
0.0
  0
POINT
  5
946
330
951
100
AcDbEntity
  8
DEFPOINTS
  6
ByBlock
 62
     0
100
AcDbPoint
 10
68.68469171262296
 20
33.85596180116013
 30
0.0
  0
LINE
  5
947
330
951
100
AcDbEntity
  8
0
  6
ByBlock
 62
     0
370
    -2
100
AcDbLine
 10
79.08469171268297
 20
39.43763594694013
 30
0.0
 11
79.08469171268297
 21
49.09666175286164
 31
0.0
  0
LINE
  5
948
330
951
100
AcDbEntity
  8
0
  6
ByBlock
 62
     0
370
    -2
100
AcDbLine
 10
68.68469171262296
 20
33.91846180116013
 30
0.0
 11
68.68469171262296
 21
49.09666175286164
 31
0.0
  0
LINE
  5
949
330
951
100
AcDbEntity
  8
0
  6
ByBlock
 62
     0
370
    -2
100
AcDbLine
 10
79.08469171268297
 20
48.97166175286164
 30
0.0
 11
75.97469171265297
 21
48.97166175286164
 31
0.0
  0
LINE
  5
94A
330
951
100
AcDbEntity
  8
0
  6
ByBlock
 62
     0
370
    -2
100
AcDbLine
 10
68.68469171262296
 20
48.97166175286164
 30
0.0
 11
71.79469171265296
 21
48.97166175286164
 31
0.0
  0
INSERT
  5
94B
330
951
100
AcDbEntity
  8
0
  6
ByBlock
 62
     0
370
    -2
100
AcDbBlockReference
  2
_FILLED
 10
79.08469171268297
 20
48.97166175286164
 30
0.0
 41
1.5
 42
1.5
 43
1.5
  0
INSERT
  5
94D
330
951
100
AcDbEntity
  8
0
  6
ByBlock
 62
     0
370
    -2
100
AcDbBlockReference
  2
_FILLED
 10
68.68469171262296
 20
48.97166175286164
 30
0.0
 41
1.5
 42
1.5
 43
1.5
 50
180.0
  0
MTEXT
  5
94F
330
951
100
AcDbEntity
  8
0
  6
ByBlock
 62
     0
370
    -2
100
AcDbMText
 10
73.88469171265297
 20
48.97166175286164
 30
0.0
 40
1.5
 41
0.0
 46
0.0
 71
     5
 72
     1
  1
\A1;10.40
 73
     1
 44
1.0
  0
ENDBLK
  5
956
330
951
100
AcDbEntity
  8
0
100
AcDbBlockEnd
  0
ENDSEC
  0
SECTION
  2
ENTITIES
  0
LINE
  5
212
330
207
100
AcDbEntity
  8
0
  6
Continuous
 62
     7
100
AcDbLine
 10
14.03028675156537
 20
38.85772723830019
 30
0.0
 11
13.72570230612538
 21
38.60785245738015
 31
0.0
  0
LINE
  5
213
330
207
100
AcDbEntity
  8
0
  6
Continuous
 62
     7
100
AcDbLine
 10
15.64689837482538
 20
39.37112428618019
 30
0.0
 11
15.32708782826538
 21
39.18656017474018
 31
0.0
  0
LINE
  5
214
330
207
100
AcDbEntity
  8
0
  6
Continuous
 62
     7
100
AcDbLine
 10
14.37776758060539
 20
39.04337782966019
 30
0.0
 11
14.03028675156537
 21
38.85772723830019
 31
0.0
  0
LINE
  5
215
330
207
100
AcDbEntity
  8
0
  6
Continuous
 62
     7
100
AcDbLine
 10
14.7547906924454
 20
39.15766929272013
 30
0.0
 11
14.37776758060539
 21
39.04337782966019
 31
0.0
  0
LINE
  5
216
330
207
100
AcDbEntity
  8
0
  6
Continuous
 62
     7
100
AcDbLine
 10
14.36740568108539
 20
-17.17001145529983
 30
0.0
 11
14.74438663654539
 21
-17.28444190715985
 31
0.0
  0
LINE
  5
217
330
207
100
AcDbEntity
  8
0
  6
Continuous
 62
     7
100
AcDbLine
 10
14.01999332028538
 20
-16.9842327742798
 30
0.0
 11
14.36740568108539
 21
-17.17001145529983
 31
0.0
  0
LINE
  5
218
330
207
100
AcDbEntity
  8
0
  6
Continuous
 62
     7
100
AcDbLine
 10
15.34270044118537
 20
-17.32310126595982
 30
0.0
 11
15.64590863334539
 21
-17.49823312549981
 31
0.0
  0
LINE
  5
219
330
207
100
AcDbEntity
  8
0
  6
Continuous
 62
     7
100
AcDbLine
 10
13.71550101588537
 20
-16.73424572281982
 30
0.0
 11
14.01999332028538
 21
-16.9842327742798
 31
0.0
  0
LINE
  5
21A
330
207
100
AcDbEntity
  8
0
  6
Continuous
 62
     7
100
AcDbLine
 10
13.72570230612538
 20
38.60785245738015
 30
0.0
 11
13.47571525466537
 21
38.30336015298019
 31
0.0
  0
LINE
  5
21B
330
207
100
AcDbEntity
  8
0
  6
Continuous
 62
     7
100
AcDbLine
 10
15.92942834062538
 20
38.11915417138016
 30
0.0
 11
15.76888120172538
 21
37.95866621194017
 31
0.0
  0
LINE
  5
21C
330
207
100
AcDbEntity
  8
0
  6
Continuous
 62
     7
100
AcDbLine
 10
14.21359066994538
 20
36.40394895054015
 30
0.0
 11
14.37413780630538
 21
36.56443690998015
 31
0.0
  0
LINE
  5
21E
102
{ACAD_REACTORS
330
7FB
102
}
330
207
100
AcDbEntity
  8
0
  6
Continuous
 62
     7
100
AcDbLine
 10
14.74438663654539
 20
-17.28444190715985
 30
0.0
 11
15.13644883184537
 21
-17.32312979777984
 31
0.0
  0
LINE
  5
21F
330
207
100
AcDbEntity
  8
0
  6
Continuous
 62
     7
100
AcDbLine
 10
14.21369491408538
 20
-14.53052958415984
 30
0.0
 11
14.37418287352537
 21
-14.69107672051982
 31
0.0
  0
LINE
  5
220
330
207
100
AcDbEntity
  8
0
  6
Continuous
 62
     7
100
AcDbLine
 10
15.92890013238537
 20
-16.24636725483984
 30
0.0
 11
15.76841217294538
 21
-16.08582011847986
 31
0.0
  0
LINE
  5
221
330
207
100
AcDbEntity
  8
0
  6
Continuous
 62
     7
100
AcDbLine
 10
13.46562623750538
 20
-16.42966127737981
 30
0.0
 11
13.71550101588537
 21
-16.73424572281982
 31
0.0
  0
LINE
  5
222
330
207
100
AcDbEntity
  8
0
  6
Continuous
 62
     7
100
AcDbLine
 10
13.47571525466537
 20
38.30336015298019
 30
0.0
 11
13.28993657364538
 21
37.95594779218015
 31
0.0
  0
LINE
  5
223
330
207
100
AcDbEntity
  8
0
  6
Continuous
 62
     7
100
AcDbLine
 10
17.07921633822536
 20
36.96894220968016
 30
0.0
 11
16.91866920186538
 21
36.80845425024017
 31
0.0
  0
LINE
  5
224
330
207
100
AcDbEntity
  8
0
  6
Continuous
 62
     7
100
AcDbLine
 10
15.36337867008538
 20
35.25373698884016
 30
0.0
 11
15.52392580644539
 21
35.41422494828015
 31
0.0
  0
LINE
  5
225
330
207
100
AcDbEntity
  8
0
  6
Continuous
 62
     7
100
AcDbLine
 10
15.13644883184537
 20
-17.32312979777984
 30
0.0
 11
45.14677484101404
 21
-17.31897837287859
 31
0.0
  0
LINE
  5
226
330
207
100
AcDbEntity
  8
0
  6
Continuous
 62
     7
100
AcDbLine
 10
15.52392580644539
 20
-16.08577505125982
 30
0.0
 11
15.76841217294538
 21
-16.08582011847986
 31
0.0
  0
LINE
  5
227
330
207
100
AcDbEntity
  8
0
  6
Continuous
 62
     7
100
AcDbLine
 10
44.52392552794538
 20
-16.08176339049984
 30
0.0
 11
44.76841189698538
 21
-16.08180845771983
 31
0.0
  0
LINE
  5
228
330
207
100
AcDbEntity
  8
0
  6
Continuous
 62
     7
100
AcDbLine
 10
15.97061969334538
 20
-15.66361419885985
 30
0.0
 11
15.76849000616539
 21
-15.66357693959984
 31
0.0
  0
LINE
  5
229
330
207
100
AcDbEntity
  8
0
  6
Continuous
 62
     7
100
AcDbLine
 10
15.3218739499454
 20
-15.66349461311984
 30
0.0
 11
15.52400363712539
 21
-15.66353187237985
 31
0.0
  0
LINE
  5
22A
330
207
100
AcDbEntity
  8
0
  6
Continuous
 62
     7
100
AcDbLine
 10
44.97061941738539
 20
-15.65960253555983
 30
0.0
 11
44.76848973020537
 21
-15.65956527629982
 31
0.0
  0
LINE
  5
22B
330
207
100
AcDbEntity
  8
0
  6
Continuous
 62
     7
100
AcDbLine
 10
44.32187367398538
 20
-15.65948295235981
 30
0.0
 11
44.5240033611654
 21
-15.65952021161982
 31
0.0
  0
LINE
  5
22C
330
207
100
AcDbEntity
  8
0
  6
Continuous
 62
     7
100
AcDbLine
 10
15.36390687578537
 20
-13.38074158655982
 30
0.0
 11
15.52439483522537
 21
-13.54128872291983
 31
0.0
  0
LINE
  5
22D
330
207
100
AcDbEntity
  8
0
  6
Continuous
 62
     7
100
AcDbLine
 10
17.07911209408539
 20
-15.09657925469983
 30
0.0
 11
16.9186241346454
 21
-14.93603211833982
 31
0.0
  0
LINE
  5
22E
330
207
100
AcDbEntity
  8
0
  6
Continuous
 62
     7
100
AcDbLine
 10
13.27997564614537
 20
-16.08218045087983
 30
0.0
 11
13.46562623750538
 21
-16.42966127737981
 31
0.0
  0
LINE
  5
22F
330
207
100
AcDbEntity
  8
0
  6
Continuous
 62
     7
100
AcDbLine
 10
14.37413780630538
 20
-14.93556308955982
 30
0.0
 11
14.79638098518538
 21
-14.93564092277984
 31
0.0
  0
LINE
  5
230
330
207
100
AcDbEntity
  8
0
  6
Continuous
 62
     7
100
AcDbLine
 10
16.49638095576537
 20
-14.93595428765983
 30
0.0
 11
16.9186241346454
 21
-14.93603211833982
 31
0.0
  0
LINE
  5
231
330
207
100
AcDbEntity
  8
0
  6
Continuous
 62
     7
100
AcDbLine
 10
43.37413752780537
 20
-14.93155142879982
 30
0.0
 11
43.79638070668537
 21
-14.93162926201981
 31
0.0
  0
LINE
  5
232
330
207
100
AcDbEntity
  8
0
  6
Continuous
 62
     7
100
AcDbLine
 10
45.49638067980538
 20
-14.93194262435983
 30
0.0
 11
45.91862385868538
 21
-14.93202045757982
 31
0.0
  0
LINE
  5
233
330
207
100
AcDbEntity
  8
0
  6
Continuous
 62
     7
100
AcDbLine
 10
16.91866920186538
 20
-14.69154574929982
 30
0.0
 11
16.49642602298539
 21
-14.69146791861985
 31
0.0
  0
LINE
  5
234
330
207
100
AcDbEntity
  8
0
  6
Continuous
 62
     7
100
AcDbLine
 10
14.79642605240537
 20
-14.69115455373981
 30
0.0
 11
14.37418287352537
 21
-14.69107672051982
 31
0.0
  0
LINE
  5
235
330
207
100
AcDbEntity
  8
0
  6
Continuous
 62
     7
100
AcDbLine
 10
45.91866892590539
 20
-14.68753408853985
 30
0.0
 11
45.49642574448538
 21
-14.6874562553198
 31
0.0
  0
LINE
  5
236
330
207
100
AcDbEntity
  8
0
  6
Continuous
 62
     7
100
AcDbLine
 10
43.79642577390538
 20
-14.68714289297984
 30
0.0
 11
43.37418259502536
 21
-14.68706505975985
 31
0.0
  0
LINE
  5
237
330
207
100
AcDbEntity
  8
0
  6
Continuous
 62
     7
100
AcDbLine
 10
15.97093305822537
 20
-13.96361422573983
 30
0.0
 11
15.76880337104538
 21
-13.96357696901984
 31
0.0
  0
LINE
  5
238
330
207
100
AcDbEntity
  8
0
  6
Continuous
 62
     7
100
AcDbLine
 10
15.32218731482538
 20
-13.96349464253984
 30
0.0
 11
15.52431700200538
 21
-13.96353190179985
 31
0.0
  0
LINE
  5
239
330
207
100
AcDbEntity
  8
0
  6
Continuous
 62
     7
100
AcDbLine
 10
44.97093277972536
 20
-13.9596025649798
 30
0.0
 11
44.7688030925454
 21
-13.95956530571985
 31
0.0
  0
LINE
  5
23A
330
207
100
AcDbEntity
  8
0
  6
Continuous
 62
     7
100
AcDbLine
 10
44.32218703632537
 20
-13.95948298177984
 30
0.0
 11
44.52431672350536
 21
-13.95952023849981
 31
0.0
  0
LINE
  5
23B
330
207
100
AcDbEntity
  8
0
  6
Continuous
 62
     7
100
AcDbLine
 10
15.76888120172538
 20
-13.54133378759983
 30
0.0
 11
15.52439483522537
 21
-13.54128872291983
 31
0.0
  0
LINE
  5
23C
330
207
100
AcDbEntity
  8
0
  6
Continuous
 62
     7
100
AcDbLine
 10
44.76888092576536
 20
-13.53732212683983
 30
0.0
 11
44.52439455672538
 21
-13.53727705961984
 31
0.0
  0
LINE
  5
23D
330
207
100
AcDbEntity
  8
0
  6
Continuous
 62
     7
100
AcDbLine
 10
13.28993657364538
 20
37.95594779218015
 30
0.0
 11
13.17550612178539
 21
37.57896683926015
 31
0.0
  0
LINE
  5
23E
102
{ACAD_REACTORS
330
7B9
102
}
330
207
100
AcDbEntity
  8
0
  6
Continuous
 62
     7
100
AcDbLine
 10
13.1464981737054
 20
-11.97403819727981
 30
0.0
 11
15.64649817496539
 21
-11.97403819727981
 31
0.0
  0
LINE
  5
23F
330
207
100
AcDbEntity
  8
0
  6
Continuous
 62
     7
100
AcDbLine
 10
19.89649817380538
 20
-11.97403819727981
 30
0.0
 11
40.39649817448537
 21
-11.97403819727981
 31
0.0
  0
LINE
  5
240
330
207
100
AcDbEntity
  8
0
  6
Continuous
 62
     7
100
AcDbLine
 10
44.64649817332537
 20
-11.97403819727981
 30
0.0
 11
47.14649817458539
 21
-11.97403819727981
 31
0.0
  0
LINE
  5
241
330
207
100
AcDbEntity
  8
0
  6
Continuous
 62
     7
100
AcDbLine
 10
19.89649817380538
 20
-11.77854233985983
 30
0.0
 11
40.39649817448537
 21
-11.77854233985983
 31
0.0
  0
LINE
  5
242
330
207
100
AcDbEntity
  8
0
  6
Continuous
 62
     7
100
AcDbLine
 10
15.64649817496539
 20
-11.52602173491982
 30
0.0
 11
19.89649817380538
 21
-11.52602173491982
 31
0.0
  0
LINE
  5
243
330
207
100
AcDbEntity
  8
0
  6
Continuous
 62
     7
100
AcDbLine
 10
40.39649817448537
 20
-11.52602173491982
 30
0.0
 11
44.64649817332537
 21
-11.52602173491982
 31
0.0
  0
LINE
  5
244
330
207
100
AcDbEntity
  8
0
  6
Continuous
 62
     7
100
AcDbLine
 10
13.16568418054538
 20
-15.70515733649981
 30
0.0
 11
13.27997564614537
 21
-16.08218045087983
 31
0.0
  0
LINE
  5
245
330
207
100
AcDbEntity
  8
0
  6
Continuous
 62
     7
100
AcDbLine
 10
13.94649817390538
 20
-9.624038198279834
 30
0.0
 11
46.34649817438537
 21
-9.624038198279834
 31
0.0
  0
LINE
  5
246
330
207
100
AcDbEntity
  8
0
  6
Continuous
 62
     7
100
AcDbLine
 10
13.13681823116539
 20
-15.31308268757985
 30
0.0
 11
13.16568418054538
 21
-15.70515733649981
 31
0.0
  0
LINE
  5
247
330
207
100
AcDbEntity
  8
0
  6
Continuous
 62
     7
100
AcDbLine
 10
13.17550612178539
 20
37.57896683926015
 30
0.0
 11
13.13681823116539
 21
37.18690464396013
 31
0.0
  0
LINE
  5
248
330
207
100
AcDbEntity
  8
0
  6
Continuous
 62
     7
100
AcDbLine
 10
13.13681823116539
 20
37.18690464396013
 30
0.0
 11
13.13681823116539
 21
33.85596180116013
 31
0.0
  0
LINE
  5
249
330
207
100
AcDbEntity
  8
0
  6
Continuous
 62
     7
100
AcDbLine
 10
13.13681823116539
 20
-11.97403819727981
 30
0.0
 11
13.13681823116539
 21
-15.31308268757985
 31
0.0
  0
LINE
  5
24A
102
{ACAD_REACTORS
330
77A
330
7B9
330
7CF
102
}
330
207
100
AcDbEntity
  8
0
  6
Continuous
 62
     7
100
AcDbLine
 10
13.1464981737054
 20
33.85596180116013
 30
0.0
 11
13.1464981737054
 21
-11.97403819727981
 31
0.0
  0
LINE
  5
24B
330
207
100
AcDbEntity
  8
0
  6
Continuous
 62
     7
100
AcDbLine
 10
13.94649817390538
 20
33.05596180350017
 30
0.0
 11
13.94649817390538
 21
-9.624038198279834
 31
0.0
  0
LINE
  5
24C
330
207
100
AcDbEntity
  8
0
  6
Continuous
 62
     7
100
AcDbLine
 10
14.37418287352537
 20
36.80892327902018
 30
0.0
 11
14.37413780630538
 21
36.56443690998015
 31
0.0
  0
LINE
  5
24D
330
207
100
AcDbEntity
  8
0
  6
Continuous
 62
     7
100
AcDbLine
 10
14.37418287352537
 20
-14.69107672051982
 30
0.0
 11
14.37413780630538
 21
-14.93556308955982
 31
0.0
  0
LINE
  5
24E
330
207
100
AcDbEntity
  8
0
  6
Continuous
 62
     7
100
AcDbLine
 10
14.79646331166538
 20
37.01097513298015
 30
0.0
 11
14.79642605240537
 21
36.80884544580016
 31
0.0
  0
LINE
  5
24F
330
207
100
AcDbEntity
  8
0
  6
Continuous
 62
     7
100
AcDbLine
 10
14.79634372592537
 20
36.36222938958014
 30
0.0
 11
14.79638098518538
 21
36.56435907676018
 31
0.0
  0
LINE
  5
250
330
207
100
AcDbEntity
  8
0
  6
Continuous
 62
     7
100
AcDbLine
 10
14.79646331166538
 20
-14.48902486655982
 30
0.0
 11
14.79642605240537
 21
-14.69115455373981
 31
0.0
  0
LINE
  5
251
330
207
100
AcDbEntity
  8
0
  6
Continuous
 62
     7
100
AcDbLine
 10
14.79634372592537
 20
-15.13777060995983
 30
0.0
 11
14.79638098518538
 21
-14.93564092277984
 31
0.0
  0
LINE
  5
252
330
207
100
AcDbEntity
  8
0
  6
Continuous
 62
     7
100
AcDbLine
 10
44.64689809632537
 20
39.37513594694013
 30
0.0
 11
44.32708754976539
 21
39.19057183550018
 31
0.0
  0
LINE
  5
253
330
207
100
AcDbEntity
  8
0
  6
Continuous
 62
     7
100
AcDbLine
 10
44.34270016268539
 20
-17.31908960265983
 30
0.0
 11
44.64590835484537
 21
-17.49422146473984
 31
0.0
  0
LINE
  5
254
330
207
100
AcDbEntity
  8
0
  6
Continuous
 62
     7
100
AcDbLine
 10
15.64649817496539
 20
-11.97403819727981
 30
0.0
 11
15.64649817496539
 21
-9.624038198279834
 31
0.0
  0
LINE
  5
255
102
{ACAD_REACTORS
330
764
330
790
102
}
330
207
100
AcDbEntity
  8
0
  6
Continuous
 62
     7
100
AcDbLine
 10
16.13149817524538
 20
-4.014038196559824
 30
0.0
 11
16.13149817524538
 21
31.02596180204017
 31
0.0
  0
LINE
  5
256
330
207
100
AcDbEntity
  8
0
  6
Continuous
 62
     7
100
AcDbLine
 10
15.52439483522537
 20
37.95871127662014
 30
0.0
 11
15.52431700200538
 21
37.53646809774017
 31
0.0
  0
LINE
  5
257
330
207
100
AcDbEntity
  8
0
  6
Continuous
 62
     7
100
AcDbLine
 10
15.52400363712539
 20
35.83646812716017
 30
0.0
 11
15.52392580644539
 21
35.41422494828015
 31
0.0
  0
LINE
  5
258
330
207
100
AcDbEntity
  8
0
  6
Continuous
 62
     7
100
AcDbLine
 10
15.52439483522537
 20
-13.54128872291983
 30
0.0
 11
15.52431700200538
 21
-13.96353190179985
 31
0.0
  0
LINE
  5
259
330
207
100
AcDbEntity
  8
0
  6
Continuous
 62
     7
100
AcDbLine
 10
15.52400363712539
 20
-15.66353187237985
 30
0.0
 11
15.52392580644539
 21
-16.08577505125982
 31
0.0
  0
LINE
  5
25A
330
207
100
AcDbEntity
  8
0
  6
Continuous
 62
     7
100
AcDbLine
 10
15.76841217294538
 20
35.41417988106019
 30
0.0
 11
15.76849000616539
 21
35.83642305994022
 31
0.0
  0
LINE
  5
25B
330
207
100
AcDbEntity
  8
0
  6
Continuous
 62
     7
100
AcDbLine
 10
15.76880337104538
 20
37.53642303306015
 30
0.0
 11
15.76888120172538
 21
37.95866621194017
 31
0.0
  0
LINE
  5
25C
330
207
100
AcDbEntity
  8
0
  6
Continuous
 62
     7
100
AcDbLine
 10
15.76841217294538
 20
-16.08582011847986
 30
0.0
 11
15.76849000616539
 21
-15.66357693959984
 31
0.0
  0
LINE
  5
25D
330
207
100
AcDbEntity
  8
0
  6
Continuous
 62
     7
100
AcDbLine
 10
15.76880337104538
 20
-13.96357696901984
 30
0.0
 11
15.76888120172538
 21
-13.54133378759983
 31
0.0
  0
LINE
  5
25E
330
207
100
AcDbEntity
  8
0
  6
Continuous
 62
     7
100
AcDbLine
 10
16.49646328224537
 20
37.01066176810019
 30
0.0
 11
16.49642602298539
 21
36.80853208346019
 31
0.0
  0
LINE
  5
25F
330
207
100
AcDbEntity
  8
0
  6
Continuous
 62
     7
100
AcDbLine
 10
16.49634369650539
 20
36.36191602724017
 30
0.0
 11
16.49638095576537
 21
36.56404571442016
 31
0.0
  0
LINE
  5
260
330
207
100
AcDbEntity
  8
0
  6
Continuous
 62
     7
100
AcDbLine
 10
16.49646328224537
 20
-14.48933823143986
 30
0.0
 11
16.49642602298539
 21
-14.69146791861985
 31
0.0
  0
LINE
  5
261
330
207
100
AcDbEntity
  8
0
  6
Continuous
 62
     7
100
AcDbLine
 10
16.49634369650539
 20
-15.13808397229982
 30
0.0
 11
16.49638095576537
 21
-14.93595428765983
 31
0.0
  0
LINE
  5
262
330
207
100
AcDbEntity
  8
0
  6
Continuous
 62
     7
100
AcDbLine
 10
16.9186241346454
 20
36.56396788120014
 30
0.0
 11
16.91866920186538
 21
36.80845425024017
 31
0.0
  0
LINE
  5
263
330
207
100
AcDbEntity
  8
0
  6
Continuous
 62
     7
100
AcDbLine
 10
16.9186241346454
 20
-14.93603211833982
 30
0.0
 11
16.91866920186538
 21
-14.69154574929982
 31
0.0
  0
LINE
  5
264
330
207
100
AcDbEntity
  8
0
  6
Continuous
 62
     7
100
AcDbLine
 10
16.13149817524538
 20
-4.014038196559824
 30
0.0
 11
44.16149817558536
 21
-4.014038196559824
 31
0.0
  0
LINE
  5
265
330
207
100
AcDbEntity
  8
0
  6
Continuous
 62
     7
100
AcDbLine
 10
19.89649817380538
 20
-9.624038198279834
 30
0.0
 11
19.89649817380538
 21
-11.97403819727981
 31
0.0
  0
LINE
  5
266
330
207
100
AcDbEntity
  8
0
  6
Continuous
 62
     7
100
AcDbLine
 10
44.9294280621254
 20
38.12316583214016
 30
0.0
 11
44.76888092576536
 21
37.96267787270017
 31
0.0
  0
LINE
  5
267
330
207
100
AcDbEntity
  8
0
  6
Continuous
 62
     7
100
AcDbLine
 10
43.21359039144536
 20
36.40796061130015
 30
0.0
 11
43.37413752780537
 21
36.56844857074014
 31
0.0
  0
LINE
  5
268
330
207
100
AcDbEntity
  8
0
  6
Continuous
 62
     7
100
AcDbLine
 10
43.21369463558537
 20
-14.52651792339981
 30
0.0
 11
43.37418259502536
 21
-14.68706505975985
 31
0.0
  0
LINE
  5
269
330
207
100
AcDbEntity
  8
0
  6
Continuous
 62
     7
100
AcDbLine
 10
44.92889985642537
 20
-16.24235559407984
 30
0.0
 11
44.76841189698538
 21
-16.08180845771983
 31
0.0
  0
LINE
  5
26A
330
207
100
AcDbEntity
  8
0
  6
Continuous
 62
     7
100
AcDbLine
 10
46.07921606226537
 20
36.97295387044016
 30
0.0
 11
45.91866892590539
 21
36.81246591100017
 31
0.0
  0
LINE
  5
26B
330
207
100
AcDbEntity
  8
0
  6
Continuous
 62
     7
100
AcDbLine
 10
44.36337839158537
 20
35.25774864960016
 30
0.0
 11
44.52392552794538
 21
35.41823660904021
 31
0.0
  0
LINE
  5
26C
330
207
100
AcDbEntity
  8
0
  6
Continuous
 62
     7
100
AcDbLine
 10
44.36390659728539
 20
-13.37672992325983
 30
0.0
 11
44.52439455672538
 21
-13.53727705961984
 31
0.0
  0
LINE
  5
26D
330
207
100
AcDbEntity
  8
0
  6
Continuous
 62
     7
100
AcDbLine
 10
46.07911181812537
 20
-15.09256759393986
 30
0.0
 11
45.91862385868538
 21
-14.93202045757982
 31
0.0
  0
LINE
  5
26E
330
207
100
AcDbEntity
  8
0
  6
Continuous
 62
     7
100
AcDbLine
 10
15.92942834062538
 20
-13.38084582815981
 30
0.0
 11
15.76888120172538
 21
-13.54133378759983
 31
0.0
  0
LINE
  5
26F
330
207
100
AcDbEntity
  8
0
  6
Continuous
 62
     7
100
AcDbLine
 10
14.21359066994538
 20
-15.09605104899984
 30
0.0
 11
14.37413780630538
 21
-14.93556308955982
 31
0.0
  0
LINE
  5
270
330
207
100
AcDbEntity
  8
0
  6
Continuous
 62
     7
100
AcDbLine
 10
17.07921633822536
 20
-14.53105778985983
 30
0.0
 11
16.91866920186538
 21
-14.69154574929982
 31
0.0
  0
LINE
  5
271
330
207
100
AcDbEntity
  8
0
  6
Continuous
 62
     7
100
AcDbLine
 10
15.36337867008538
 20
-16.24626301069981
 30
0.0
 11
15.52392580644539
 21
-16.08577505125982
 31
0.0
  0
LINE
  5
272
330
207
100
AcDbEntity
  8
0
  6
Continuous
 62
     7
100
AcDbLine
 10
14.21369491408538
 20
36.96947041538016
 30
0.0
 11
14.37418287352537
 21
36.80892327902018
 31
0.0
  0
LINE
  5
273
330
207
100
AcDbEntity
  8
0
  6
Continuous
 62
     7
100
AcDbLine
 10
15.92890013238537
 20
35.25363274470016
 30
0.0
 11
15.76841217294538
 21
35.41417988106019
 31
0.0
  0
LINE
  5
274
330
207
100
AcDbEntity
  8
0
  6
Continuous
 62
     7
100
AcDbLine
 10
15.36390687578537
 20
38.11925841298017
 30
0.0
 11
15.52439483522537
 21
37.95871127662014
 31
0.0
  0
LINE
  5
275
330
207
100
AcDbEntity
  8
0
  6
Continuous
 62
     7
100
AcDbLine
 10
17.07911209408539
 20
36.40342074484016
 30
0.0
 11
16.9186241346454
 21
36.56396788120014
 31
0.0
  0
LINE
  5
276
330
207
100
AcDbEntity
  8
0
  6
Continuous
 62
     7
100
AcDbLine
 10
40.39649817448537
 20
-9.624038198279834
 30
0.0
 11
40.39649817448537
 21
-11.97403819727981
 31
0.0
  0
LINE
  5
277
330
207
100
AcDbEntity
  8
0
  6
Continuous
 62
     7
100
AcDbLine
 10
43.37418259502536
 20
36.81293493978018
 30
0.0
 11
43.37413752780537
 21
36.56844857074014
 31
0.0
  0
LINE
  5
278
330
207
100
AcDbEntity
  8
0
  6
Continuous
 62
     7
100
AcDbLine
 10
43.37418259502536
 20
-14.68706505975985
 30
0.0
 11
43.37413752780537
 21
-14.93155142879982
 31
0.0
  0
LINE
  5
279
102
{ACAD_REACTORS
330
764
102
}
330
207
100
AcDbEntity
  8
0
  6
Continuous
 62
     7
100
AcDbLine
 10
44.16149817558536
 20
-4.014038196559824
 30
0.0
 11
44.16149817558536
 21
31.02596180204017
 31
0.0
  0
LINE
  5
27A
330
207
100
AcDbEntity
  8
0
  6
Continuous
 62
     7
100
AcDbLine
 10
44.64649817332537
 20
-11.97403819727981
 30
0.0
 11
44.64649817332537
 21
-9.624038198279834
 31
0.0
  0
LINE
  5
27B
330
207
100
AcDbEntity
  8
0
  6
Continuous
 62
     7
100
AcDbLine
 10
43.79646303316537
 20
37.01498679374021
 30
0.0
 11
43.79642577390538
 21
36.81285710656016
 31
0.0
  0
LINE
  5
27C
330
207
100
AcDbEntity
  8
0
  6
Continuous
 62
     7
100
AcDbLine
 10
43.79634344996538
 20
36.36624105288018
 30
0.0
 11
43.79638070668537
 21
36.56837074006017
 31
0.0
  0
LINE
  5
27D
330
207
100
AcDbEntity
  8
0
  6
Continuous
 62
     7
100
AcDbLine
 10
43.79646303316537
 20
-14.48501320579985
 30
0.0
 11
43.79642577390538
 21
-14.68714289297984
 31
0.0
  0
LINE
  5
27E
330
207
100
AcDbEntity
  8
0
  6
Continuous
 62
     7
100
AcDbLine
 10
43.79634344996538
 20
-15.13375894665984
 30
0.0
 11
43.79638070668537
 21
-14.93162926201981
 31
0.0
  0
LINE
  5
27F
330
207
100
AcDbEntity
  8
0
  6
Continuous
 62
     7
100
AcDbLine
 10
44.52439455672538
 20
37.96272293992018
 30
0.0
 11
44.52431672350536
 21
37.54047976104016
 31
0.0
  0
LINE
  5
280
330
207
100
AcDbEntity
  8
0
  6
Continuous
 62
     7
100
AcDbLine
 10
44.5240033611654
 20
35.84047979046017
 30
0.0
 11
44.52392552794538
 21
35.41823660904021
 31
0.0
  0
LINE
  5
281
330
207
100
AcDbEntity
  8
0
  6
Continuous
 62
     7
100
AcDbLine
 10
44.52439455672538
 20
-13.53727705961984
 30
0.0
 11
44.52431672350536
 21
-13.95952023849981
 31
0.0
  0
LINE
  5
282
330
207
100
AcDbEntity
  8
0
  6
Continuous
 62
     7
100
AcDbLine
 10
44.5240033611654
 20
-15.65952021161982
 30
0.0
 11
44.52392552794538
 21
-16.08176339049984
 31
0.0
  0
LINE
  5
283
330
207
100
AcDbEntity
  8
0
  6
Continuous
 62
     7
100
AcDbLine
 10
44.76841189698538
 20
35.41819154436018
 30
0.0
 11
44.76848973020537
 21
35.84043472324015
 31
0.0
  0
LINE
  5
284
330
207
100
AcDbEntity
  8
0
  6
Continuous
 62
     7
100
AcDbLine
 10
44.7688030925454
 20
37.5404346938202
 30
0.0
 11
44.76888092576536
 21
37.96267787270017
 31
0.0
  0
LINE
  5
285
330
207
100
AcDbEntity
  8
0
  6
Continuous
 62
     7
100
AcDbLine
 10
44.76841189698538
 20
-16.08180845771983
 30
0.0
 11
44.76848973020537
 21
-15.65956527629982
 31
0.0
  0
LINE
  5
286
330
207
100
AcDbEntity
  8
0
  6
Continuous
 62
     7
100
AcDbLine
 10
44.7688030925454
 20
-13.95956530571985
 30
0.0
 11
44.76888092576536
 21
-13.53732212683983
 31
0.0
  0
LINE
  5
287
330
207
100
AcDbEntity
  8
0
  6
Continuous
 62
     7
100
AcDbLine
 10
45.49646300374539
 20
37.01467343140018
 30
0.0
 11
45.49642574448538
 21
36.81254374422019
 31
0.0
  0
LINE
  5
288
330
207
100
AcDbEntity
  8
0
  6
Continuous
 62
     7
100
AcDbLine
 10
45.49634342054537
 20
36.36592768800017
 30
0.0
 11
45.49638067980538
 21
36.56805737518016
 31
0.0
  0
LINE
  5
289
330
207
100
AcDbEntity
  8
0
  6
Continuous
 62
     7
100
AcDbLine
 10
45.49646300374539
 20
-14.48532656813981
 30
0.0
 11
45.49642574448538
 21
-14.6874562553198
 31
0.0
  0
LINE
  5
28A
330
207
100
AcDbEntity
  8
0
  6
Continuous
 62
     7
100
AcDbLine
 10
45.49634342054537
 20
-15.13407231153982
 30
0.0
 11
45.49638067980538
 21
-14.93194262435983
 31
0.0
  0
LINE
  5
28B
330
207
100
AcDbEntity
  8
0
  6
Continuous
 62
     7
100
AcDbLine
 10
45.91862385868538
 20
36.56797954196014
 30
0.0
 11
45.91866892590539
 21
36.81246591100017
 31
0.0
  0
LINE
  5
28C
330
207
100
AcDbEntity
  8
0
  6
Continuous
 62
     7
100
AcDbLine
 10
45.91862385868538
 20
-14.93202045757982
 30
0.0
 11
45.91866892590539
 21
-14.68753408853985
 31
0.0
  0
LINE
  5
28D
330
207
100
AcDbEntity
  8
0
  6
Continuous
 62
     7
100
AcDbLine
 10
46.34649817438537
 20
-9.624038198279834
 30
0.0
 11
46.34649817438537
 21
33.05596180350017
 31
0.0
  0
LINE
  5
28E
330
207
100
AcDbEntity
  8
0
  6
Continuous
 62
     7
100
AcDbLine
 10
47.14649817458539
 20
-15.31897839201456
 30
0.0
 11
47.14649817458539
 21
37.18063812868019
 31
0.0
  0
LINE
  5
28F
330
207
100
AcDbEntity
  8
0
  6
Continuous
 62
     7
100
AcDbLine
 10
46.97164632464538
 20
38.00905812792018
 30
0.0
 11
46.97165062232537
 21
38.03236802288018
 31
0.0
  0
LINE
  5
290
330
207
100
AcDbEntity
  8
0
  6
Continuous
 62
     7
100
AcDbLine
 10
15.64590863334539
 20
-17.49823312549981
 30
0.0
 11
15.94952054072539
 21
-17.32301732149983
 31
0.0
  0
LINE
  5
291
330
207
100
AcDbEntity
  8
0
  6
Continuous
 62
     7
100
AcDbLine
 10
15.96628366696538
 20
39.18664859468015
 30
0.0
 11
15.64689837482538
 21
39.37112428618019
 31
0.0
  0
LINE
  5
292
330
207
100
AcDbEntity
  8
0
  6
Continuous
 62
     7
100
AcDbLine
 10
47.14649817458539
 20
37.18063812868019
 30
0.0
 11
47.11763222520537
 21
37.57271277760015
 31
0.0
  0
LINE
  5
294
330
207
100
AcDbEntity
  8
0
  6
Continuous
 62
     7
100
AcDbLine
 10
16.13149817524538
 20
31.02596180204017
 30
0.0
 11
44.16149817558536
 21
31.02596180204017
 31
0.0
  0
LINE
  5
295
330
207
100
AcDbEntity
  8
0
  6
Continuous
 62
     7
100
AcDbLine
 10
46.34649817438537
 20
33.05596180350017
 30
0.0
 11
13.94649817390538
 21
33.05596180350017
 31
0.0
  0
LINE
  5
297
102
{ACAD_REACTORS
330
77A
102
}
330
207
100
AcDbEntity
  8
0
  6
Continuous
 62
     7
100
AcDbLine
 10
47.14649817458539
 20
33.85596180116013
 30
0.0
 11
13.1464981737054
 21
33.85596180116013
 31
0.0
  0
LINE
  5
298
330
207
100
AcDbEntity
  8
0
  6
Continuous
 62
     7
100
AcDbLine
 10
15.52392580644539
 20
35.41422494828015
 30
0.0
 11
15.76841217294538
 21
35.41417988106019
 31
0.0
  0
LINE
  5
299
330
207
100
AcDbEntity
  8
0
  6
Continuous
 62
     7
100
AcDbLine
 10
44.52392552794538
 20
35.41823660904021
 30
0.0
 11
44.76841189698538
 21
35.41819154436018
 31
0.0
  0
LINE
  5
29A
330
207
100
AcDbEntity
  8
0
  6
Continuous
 62
     7
100
AcDbLine
 10
47.11763222520537
 20
37.57271277760015
 30
0.0
 11
47.00334076214537
 21
37.94973588944015
 31
0.0
  0
LINE
  5
29B
330
207
100
AcDbEntity
  8
0
  6
Continuous
 62
     7
100
AcDbLine
 10
15.97061969334538
 20
35.8363858032202
 30
0.0
 11
15.76849000616539
 21
35.83642305994022
 31
0.0
  0
LINE
  5
29C
330
207
100
AcDbEntity
  8
0
  6
Continuous
 62
     7
100
AcDbLine
 10
15.3218739499454
 20
35.83650538642019
 30
0.0
 11
15.52400363712539
 21
35.83646812716017
 31
0.0
  0
LINE
  5
29D
330
207
100
AcDbEntity
  8
0
  6
Continuous
 62
     7
100
AcDbLine
 10
44.97061941738539
 20
35.84039746398014
 30
0.0
 11
44.76848973020537
 21
35.84043472324015
 31
0.0
  0
LINE
  5
29E
330
207
100
AcDbEntity
  8
0
  6
Continuous
 62
     7
100
AcDbLine
 10
44.32187367398538
 20
35.84051704718019
 30
0.0
 11
44.5240033611654
 21
35.84047979046017
 31
0.0
  0
LINE
  5
29F
330
207
100
AcDbEntity
  8
0
  6
Continuous
 62
     7
100
AcDbLine
 10
14.37413780630538
 20
36.56443690998015
 30
0.0
 11
14.79638098518538
 21
36.56435907676018
 31
0.0
  0
LINE
  5
2A0
330
207
100
AcDbEntity
  8
0
  6
Continuous
 62
     7
100
AcDbLine
 10
16.49638095576537
 20
36.56404571442016
 30
0.0
 11
16.9186241346454
 21
36.56396788120014
 31
0.0
  0
LINE
  5
2A1
330
207
100
AcDbEntity
  8
0
  6
Continuous
 62
     7
100
AcDbLine
 10
43.37413752780537
 20
36.56844857074014
 30
0.0
 11
43.79638070668537
 21
36.56837074006017
 31
0.0
  0
LINE
  5
2A2
330
207
100
AcDbEntity
  8
0
  6
Continuous
 62
     7
100
AcDbLine
 10
45.49638067980538
 20
36.56805737518016
 30
0.0
 11
45.91862385868538
 21
36.56797954196014
 31
0.0
  0
LINE
  5
2A3
330
207
100
AcDbEntity
  8
0
  6
Continuous
 62
     7
100
AcDbLine
 10
16.91866920186538
 20
36.80845425024017
 30
0.0
 11
16.49642602298539
 21
36.80853208346019
 31
0.0
  0
LINE
  5
2A4
330
207
100
AcDbEntity
  8
0
  6
Continuous
 62
     7
100
AcDbLine
 10
14.79642605240537
 20
36.80884544580016
 30
0.0
 11
14.37418287352537
 21
36.80892327902018
 31
0.0
  0
LINE
  5
2A5
330
207
100
AcDbEntity
  8
0
  6
Continuous
 62
     7
100
AcDbLine
 10
45.91866892590539
 20
36.81246591100017
 30
0.0
 11
45.49642574448538
 21
36.81254374422019
 31
0.0
  0
LINE
  5
2A6
330
207
100
AcDbEntity
  8
0
  6
Continuous
 62
     7
100
AcDbLine
 10
43.79642577390538
 20
36.81285710656016
 30
0.0
 11
43.37418259502536
 21
36.81293493978018
 31
0.0
  0
LINE
  5
2A7
330
207
100
AcDbEntity
  8
0
  6
Continuous
 62
     7
100
AcDbLine
 10
15.97093305822537
 20
37.53638577380019
 30
0.0
 11
15.76880337104538
 21
37.53642303306015
 31
0.0
  0
LINE
  5
2A8
330
207
100
AcDbEntity
  8
0
  6
Continuous
 62
     7
100
AcDbLine
 10
15.32218731482538
 20
37.53650535700012
 30
0.0
 11
15.52431700200538
 21
37.53646809774017
 31
0.0
  0
LINE
  5
2A9
330
207
100
AcDbEntity
  8
0
  6
Continuous
 62
     7
100
AcDbLine
 10
44.97093277972536
 20
37.54039743456019
 30
0.0
 11
44.7688030925454
 21
37.5404346938202
 31
0.0
  0
LINE
  5
2AA
330
207
100
AcDbEntity
  8
0
  6
Continuous
 62
     7
100
AcDbLine
 10
44.32218703632537
 20
37.54051702030017
 30
0.0
 11
44.52431672350536
 21
37.54047976104016
 31
0.0
  0
LINE
  5
2AC
330
207
100
AcDbEntity
  8
0
  6
Continuous
 62
     7
100
AcDbLine
 10
44.9294280621254
 20
-13.37683416739983
 30
0.0
 11
44.76888092576536
 21
-13.53732212683983
 31
0.0
  0
LINE
  5
2AD
330
207
100
AcDbEntity
  8
0
  6
Continuous
 62
     7
100
AcDbLine
 10
43.21359039144536
 20
-15.09203938823981
 30
0.0
 11
43.37413752780537
 21
-14.93155142879982
 31
0.0
  0
LINE
  5
2AE
102
{ACAD_REACTORS
330
7CF
330
7FB
102
}
330
207
100
AcDbEntity
  8
0
  6
Continuous
 62
     7
100
AcDbLine
 10
45.14686757644537
 20
39.19068523888018
 30
0.0
 11
15.14686534136538
 21
39.18653524210021
 31
0.0
  0
LINE
  5
2AF
330
207
100
AcDbEntity
  8
0
  6
Continuous
 62
     7
100
AcDbLine
 10
15.76888120172538
 20
37.95866621194017
 30
0.0
 11
15.52439483522537
 21
37.95871127662014
 31
0.0
  0
LINE
  5
2B0
330
207
100
AcDbEntity
  8
0
  6
Continuous
 62
     7
100
AcDbLine
 10
44.76888092576536
 20
37.96267787270017
 30
0.0
 11
44.52439455672538
 21
37.96272293992018
 31
0.0
  0
LINE
  5
2B1
330
207
100
AcDbEntity
  8
0
  6
Continuous
 62
     7
100
AcDbLine
 10
43.21369463558537
 20
36.97348207614016
 30
0.0
 11
43.37418259502536
 21
36.81293493978018
 31
0.0
  0
LINE
  5
2B2
330
207
100
AcDbEntity
  8
0
  6
Continuous
 62
     7
100
AcDbLine
 10
44.92889985642537
 20
35.2576444080002
 30
0.0
 11
44.76841189698538
 21
35.41819154436018
 31
0.0
  0
LINE
  5
2B3
330
207
100
AcDbEntity
  8
0
  6
Continuous
 62
     7
100
AcDbLine
 10
47.00334076214537
 20
37.94973588944015
 30
0.0
 11
46.81769017078537
 21
38.29721671848017
 31
0.0
  0
LINE
  5
2B5
330
207
100
AcDbEntity
  8
0
  6
Continuous
 62
     7
100
AcDbLine
 10
46.07921606226537
 20
-14.52704612909986
 30
0.0
 11
45.91866892590539
 21
-14.68753408853985
 31
0.0
  0
LINE
  5
2B6
330
207
100
AcDbEntity
  8
0
  6
Continuous
 62
     7
100
AcDbLine
 10
44.36337839158537
 20
-16.24225134993983
 30
0.0
 11
44.52392552794538
 21
-16.08176339049984
 31
0.0
  0
LINE
  5
2B8
330
207
100
AcDbEntity
  8
0
  6
Continuous
 62
     7
100
AcDbLine
 10
44.64590835484537
 20
-17.49422146473984
 30
0.0
 11
44.94952026222538
 21
-17.31900566073983
 31
0.0
  0
LINE
  5
2BB
330
207
100
AcDbEntity
  8
0
  6
Continuous
 62
     7
100
AcDbLine
 10
15.14686534136538
 20
39.18653524210021
 30
0.0
 11
14.7547906924454
 21
39.15766929272013
 31
0.0
  0
LINE
  5
2BC
330
207
100
AcDbEntity
  8
0
  6
Continuous
 62
     7
100
AcDbLine
 10
45.53892977174539
 20
39.15199734826012
 30
0.0
 11
45.14686757644537
 21
39.19068523888018
 31
0.0
  0
LINE
  5
2BD
330
207
100
AcDbEntity
  8
0
  6
Continuous
 62
     7
100
AcDbLine
 10
45.91591072466539
 20
39.03756689640016
 30
0.0
 11
45.53892977174539
 21
39.15199734826012
 31
0.0
  0
LINE
  5
2BE
330
207
100
AcDbEntity
  8
0
  6
Continuous
 62
     7
100
AcDbLine
 10
46.26332308546537
 20
38.85178821538017
 30
0.0
 11
45.91591072466539
 21
39.03756689640016
 31
0.0
  0
LINE
  5
2BF
330
207
100
AcDbEntity
  8
0
  6
Continuous
 62
     7
100
AcDbLine
 10
46.97165062232537
 20
38.03236802288018
 30
0.0
 11
46.95363192074538
 21
38.04277555604017
 31
0.0
  0
LINE
  5
2C0
330
207
100
AcDbEntity
  8
0
  6
Continuous
 62
     7
100
AcDbLine
 10
44.96628339100536
 20
39.19066025798014
 30
0.0
 11
44.64689809632537
 21
39.37513594694013
 31
0.0
  0
LINE
  5
2C1
330
207
100
AcDbEntity
  8
0
  6
Continuous
 62
     7
100
AcDbLine
 10
46.56781538986536
 20
38.60180116392019
 30
0.0
 11
46.26332308546537
 21
38.85178821538017
 31
0.0
  0
LINE
  5
2C2
330
207
100
AcDbEntity
  8
0
  6
Continuous
 62
     7
100
AcDbLine
 10
44.36390659728539
 20
38.12327007628016
 30
0.0
 11
44.52439455672538
 21
37.96272293992018
 31
0.0
  0
LINE
  5
2C3
330
207
100
AcDbEntity
  8
0
  6
Continuous
 62
     7
100
AcDbLine
 10
46.07911181812537
 20
36.40743240560016
 30
0.0
 11
45.91862385868538
 21
36.56797954196014
 31
0.0
  0
LINE
  5
2C4
330
207
100
AcDbEntity
  8
0
  6
Continuous
 62
     7
100
AcDbLine
 10
46.81769017078537
 20
38.29721671848017
 30
0.0
 11
46.56781538986536
 21
38.60180116392019
 31
0.0
  0
LINE
  5
2C5
330
207
100
AcDbEntity
  8
0
  6
Continuous
 62
     7
100
AcDbLine
 10
79.08469171268297
 20
-17.49823312549981
 30
0.0
 11
73.08469171372298
 21
-17.49823312549981
 31
0.0
  0
LINE
  5
2C6
330
207
100
AcDbEntity
  8
0
  6
Continuous
 62
     7
100
AcDbLine
 10
79.08469171268297
 20
-17.49422146473984
 30
0.0
 11
73.08469171372298
 21
-17.49422146473984
 31
0.0
  0
LINE
  5
2C7
330
207
100
AcDbEntity
  8
0
  6
Continuous
 62
     7
100
AcDbLine
 10
71.484691713323
 20
-17.31897980099981
 30
0.0
 11
73.08469171372298
 21
-17.31897980099981
 31
0.0
  0
LINE
  5
2C8
330
207
100
AcDbEntity
  8
0
  6
Continuous
 62
     7
100
AcDbLine
 10
70.98469171256298
 20
-17.31355437877983
 30
0.0
 11
71.28469171200297
 21
-17.31355437877983
 31
0.0
  0
LINE
  5
2C9
330
207
100
AcDbEntity
  8
0
  6
Continuous
 62
     7
100
AcDbLine
 10
70.98469171256298
 20
-17.30954271547984
 30
0.0
 11
71.28469171200297
 21
-17.30954271547984
 31
0.0
  0
LINE
  5
2CA
330
207
100
AcDbEntity
  8
0
  6
Continuous
 62
     7
100
AcDbLine
 10
71.484691713323
 20
-17.29011385415984
 30
0.0
 11
73.08469171372298
 21
-17.29011385415984
 31
0.0
  0
LINE
  5
2CB
330
207
100
AcDbEntity
  8
0
  6
Continuous
 62
     7
100
AcDbLine
 10
71.484691713323
 20
-17.17582238855982
 30
0.0
 11
73.08469171372298
 21
-17.17582238855982
 31
0.0
  0
LINE
  5
2CC
330
207
100
AcDbEntity
  8
0
  6
Continuous
 62
     7
100
AcDbLine
 10
71.484691713323
 20
-16.99017179719982
 30
0.0
 11
73.08469171372298
 21
-16.99017179719982
 31
0.0
  0
LINE
  5
2CD
330
207
100
AcDbEntity
  8
0
  6
Continuous
 62
     7
100
AcDbLine
 10
71.484691713323
 20
-16.74029701627981
 30
0.0
 11
73.08469171372298
 21
-16.74029701627981
 31
0.0
  0
LINE
  5
2CE
330
207
100
AcDbEntity
  8
0
  6
Continuous
 62
     7
100
AcDbLine
 10
71.484691713323
 20
-16.4358047118798
 30
0.0
 11
73.08469171372298
 21
-16.4358047118798
 31
0.0
  0
LINE
  5
2CF
330
207
100
AcDbEntity
  8
0
  6
Continuous
 62
     7
100
AcDbLine
 10
79.08469171268297
 20
-16.15231068145985
 30
0.0
 11
73.08469171372298
 21
-16.15231068145985
 31
0.0
  0
LINE
  5
2D0
330
207
100
AcDbEntity
  8
0
  6
Continuous
 62
     7
100
AcDbLine
 10
71.484691713323
 20
-16.08839235107985
 30
0.0
 11
73.08469171372298
 21
-16.08839235107985
 31
0.0
  0
LINE
  5
2D1
330
207
100
AcDbEntity
  8
0
  6
Continuous
 62
     7
100
AcDbLine
 10
70.23563205752296
 20
-16.24235559407984
 30
0.0
 11
70.22677335032299
 21
-16.24467715407982
 31
0.0
  0
LINE
  5
2D2
330
207
100
AcDbEntity
  8
0
  6
Continuous
 62
     7
100
AcDbLine
 10
70.22826454368297
 20
-16.24830680645982
 30
0.0
 11
70.22677335032299
 21
-16.24868881737984
 31
0.0
  0
LINE
  5
2D3
330
207
100
AcDbEntity
  8
0
  6
Continuous
 62
     7
100
AcDbLine
 10
71.484691713323
 20
-15.71141139815984
 30
0.0
 11
73.08469171372298
 21
-15.71141139815984
 31
0.0
  0
LINE
  5
2D4
330
207
100
AcDbEntity
  8
0
  6
Continuous
 62
     7
100
AcDbLine
 10
71.484691713323
 20
-15.31934920285983
 30
0.0
 11
73.08469171372298
 21
-15.31934920285983
 31
0.0
  0
LINE
  5
2D5
330
207
100
AcDbEntity
  8
0
  6
Continuous
 62
     7
100
AcDbLine
 10
70.08033343746297
 20
-14.48532656813981
 30
0.0
 11
70.23563205752296
 21
-14.52704612909986
 31
0.0
  0
LINE
  5
2D6
330
207
100
AcDbEntity
  8
0
  6
Continuous
 62
     7
100
AcDbLine
 10
70.08033343746297
 20
-14.48933823143986
 30
0.0
 11
70.234494996043
 21
-14.53075246661984
 31
0.0
  0
LINE
  5
2D7
330
207
100
AcDbEntity
  8
0
  6
Continuous
 62
     7
100
AcDbLine
 10
70.23563205752296
 20
-15.09256759393986
 30
0.0
 11
70.08033343746297
 21
-15.13407231153982
 31
0.0
  0
LINE
  5
2D8
330
207
100
AcDbEntity
  8
0
  6
Continuous
 62
     7
100
AcDbLine
 10
79.08469171268297
 20
-13.46763197665982
 30
0.0
 11
73.08469171372298
 21
-13.46763197665982
 31
0.0
  0
LINE
  5
2D9
330
207
100
AcDbEntity
  8
0
  6
Continuous
 62
     7
100
AcDbLine
 10
70.98469171256298
 20
-12.30954280185983
 30
0.0
 11
71.28469171200297
 21
-12.30954280185983
 31
0.0
  0
LINE
  5
2DA
330
207
100
AcDbEntity
  8
0
  6
Continuous
 62
     7
100
AcDbLine
 10
79.08469171268297
 20
-12.12486405259983
 30
0.0
 11
73.08469171372298
 21
-12.12486405259983
 31
0.0
  0
LINE
  5
2DB
330
207
100
AcDbEntity
  8
0
  6
Continuous
 62
     7
100
AcDbLine
 10
68.68469171262296
 20
-11.97403819727981
 30
0.0
 11
71.28919585590296
 21
-11.97403819727981
 31
0.0
  0
LINE
  5
2DC
330
207
100
AcDbEntity
  8
0
  6
Continuous
 62
     7
100
AcDbLine
 10
70.22898806522298
 20
-13.37903952747985
 30
0.0
 11
70.23440035564298
 21
-13.3805109647198
 31
0.0
  0
LINE
  5
2DD
330
207
100
AcDbEntity
  8
0
  6
Continuous
 62
     7
100
AcDbLine
 10
70.22677335032299
 20
-13.37440836071983
 30
0.0
 11
70.23563205752296
 21
-13.37683416739983
 31
0.0
  0
LINE
  5
2DE
330
207
100
AcDbEntity
  8
0
  6
Continuous
 62
     7
100
AcDbLine
 10
70.22677335032299
 20
-13.37842002401985
 30
0.0
 11
70.22898806522298
 21
-13.37903952747985
 31
0.0
  0
LINE
  5
2DF
330
207
100
AcDbEntity
  8
0
  6
Continuous
 62
     7
100
AcDbLine
 10
71.28919585590296
 20
-11.82403819755982
 30
0.0
 11
70.93469171350296
 21
-11.82403819755982
 31
0.0
  0
LINE
  5
2E0
330
207
100
AcDbEntity
  8
0
  6
Continuous
 62
     7
100
AcDbLine
 10
71.484691713323
 20
-3.974038197819823
 30
0.0
 11
71.33469171360301
 21
-3.974038197819823
 31
0.0
  0
LINE
  5
2E1
330
207
100
AcDbEntity
  8
0
  6
Continuous
 62
     7
100
AcDbLine
 10
76.81040805196298
 20
27.78998515742018
 30
0.0
 11
75.20598527402299
 21
26.28998517038013
 31
0.0
  0
LINE
  5
2E2
102
{ACAD_REACTORS
330
919
330
92F
102
}
330
207
100
AcDbEntity
  8
0
  6
Continuous
 62
     7
100
AcDbLine
 10
68.68469171262296
 20
-11.97403819727981
 30
0.0
 11
68.68469171262296
 21
33.85596180116013
 31
0.0
  0
LINE
  5
2E3
330
207
100
AcDbEntity
  8
02___PRT_ALL_AXES
  6
Continuous
 62
     7
100
AcDbLine
 10
70.64506907202298
 20
-17.12487513459985
 30
0.0
 11
70.64506907202298
 21
-12.49822204349985
 31
0.0
  0
LINE
  5
2E4
330
207
100
AcDbEntity
  8
02___PRT_ALL_AXES
  6
Continuous
 62
     7
100
AcDbLine
 10
70.64506907202298
 20
34.37512486494018
 30
0.0
 11
70.64506907202298
 21
39.0017779560402
 31
0.0
  0
LINE
  5
2E5
330
207
100
AcDbEntity
  8
0
  6
Continuous
 62
     7
100
AcDbLine
 10
70.93469171350296
 20
-11.97403819727981
 30
0.0
 11
70.93469171350296
 21
33.85596180116013
 31
0.0
  0
LINE
  5
2E6
330
207
100
AcDbEntity
  8
02___PRT_ALL_AXES
  6
Continuous
 62
     7
100
AcDbLine
 10
70.98469171256298
 20
-17.31355437877983
 30
0.0
 11
70.98469171256298
 21
-12.30954280185983
 31
0.0
  0
LINE
  5
2E7
330
207
100
AcDbEntity
  8
02___PRT_ALL_AXES
  6
Continuous
 62
     7
100
AcDbLine
 10
70.98469171256298
 20
34.18644562330016
 30
0.0
 11
70.98469171256298
 21
39.19045720022018
 31
0.0
  0
LINE
  5
2E8
330
207
100
AcDbEntity
  8
0
  6
Continuous
 62
     7
100
AcDbLine
 10
71.28469171200297
 20
39.19045720022018
 30
0.0
 11
71.28469171200297
 21
34.18644562330016
 31
0.0
  0
LINE
  5
2E9
330
207
100
AcDbEntity
  8
0
  6
Continuous
 62
     7
100
AcDbLine
 10
71.28469171200297
 20
-12.30954280185983
 30
0.0
 11
71.28469171200297
 21
-17.31355437877983
 31
0.0
  0
LINE
  5
2EA
330
207
100
AcDbEntity
  8
0
  6
Continuous
 62
     7
100
AcDbLine
 10
71.33469171360301
 20
-3.974038197819823
 30
0.0
 11
71.33469171360301
 21
-11.77854233985983
 31
0.0
  0
LINE
  5
2EB
330
207
100
AcDbEntity
  8
0
  6
Continuous
 62
     7
100
AcDbLine
 10
71.484691713323
 20
-17.32312979777984
 30
0.0
 11
71.484691713323
 21
39.19068523888018
 31
0.0
  0
LINE
  5
2EC
102
{ACAD_REACTORS
330
919
102
}
330
207
100
AcDbEntity
  8
0
  6
Continuous
 62
     7
100
AcDbLine
 10
73.08469171372298
 20
-17.49823312549981
 30
0.0
 11
73.08469171372298
 21
39.37513594694013
 31
0.0
  0
LINE
  5
2ED
330
207
100
AcDbEntity
  8
0
  6
Continuous
 62
     7
100
AcDbLine
 10
73.10969257812297
 20
9.66919632922017
 30
0.0
 11
73.10969257812297
 21
10.96751391038018
 31
0.0
  0
LINE
  5
2EE
330
207
100
AcDbEntity
  8
0
  6
Continuous
 62
     7
100
AcDbLine
 10
73.12969240350296
 20
11.77602154152018
 30
0.0
 11
73.12969240350296
 21
11.24300158902014
 31
0.0
  0
LINE
  5
2EF
330
207
100
AcDbEntity
  8
0
  6
Continuous
 62
     7
100
AcDbLine
 10
73.24469115242297
 20
12.92209597022017
 30
0.0
 11
73.24469115242297
 21
11.75369599054019
 31
0.0
  0
LINE
  5
2F0
330
207
100
AcDbEntity
  8
0
  6
Continuous
 62
     7
100
AcDbLine
 10
73.24469115242297
 20
9.595954791680185
 30
0.0
 11
73.24469115242297
 21
9.340523727740162
 31
0.0
  0
LINE
  5
2F1
330
207
100
AcDbEntity
  8
0
  6
Continuous
 62
     7
100
AcDbLine
 10
73.53469045812295
 20
10.96751391038018
 30
0.0
 11
73.53469045812295
 21
9.66919632922017
 31
0.0
  0
LINE
  5
2F2
330
207
100
AcDbEntity
  8
0
  6
Continuous
 62
     7
100
AcDbLine
 10
73.54469044828298
 20
11.24284490658019
 30
0.0
 11
73.54469044828298
 21
11.24267384774015
 31
0.0
  0
LINE
  5
2F3
330
207
100
AcDbEntity
  8
0
  6
Continuous
 62
     7
100
AcDbLine
 10
73.54469044828298
 20
11.24251716530017
 30
0.0
 11
73.54469044828298
 21
10.96751391038018
 31
0.0
  0
LINE
  5
2F4
330
207
100
AcDbEntity
  8
0
  6
Continuous
 62
     7
100
AcDbLine
 10
73.54469044828298
 20
9.872492320900136
 30
0.0
 11
73.54469044828298
 21
9.871442470320176
 31
0.0
  0
LINE
  5
2F5
330
207
100
AcDbEntity
  8
0
  6
Continuous
 62
     7
100
AcDbLine
 10
73.54469044828298
 20
9.871285787880169
 30
0.0
 11
73.54469044828298
 21
9.871114729040187
 31
0.0
  0
LINE
  5
2F6
330
207
100
AcDbEntity
  8
0
  6
Continuous
 62
     7
100
AcDbLine
 10
73.54469044828298
 20
9.87095804660018
 30
0.0
 11
73.54469044828298
 21
9.595954791680185
 31
0.0
  0
LINE
  5
2F7
330
207
100
AcDbEntity
  8
0
  6
Continuous
 62
     7
100
AcDbLine
 10
73.58469171194298
 20
25.48961167842018
 30
0.0
 11
73.58469171194298
 21
26.28998517038013
 31
0.0
  0
LINE
  5
2F8
330
207
100
AcDbEntity
  8
0
  6
Continuous
 62
     7
100
AcDbLine
 10
73.63469012350296
 20
10.47548706360018
 30
0.0
 11
73.63469012350296
 21
11.77602154152018
 31
0.0
  0
LINE
  5
2F9
330
207
100
AcDbEntity
  8
0
  6
Continuous
 62
     7
100
AcDbLine
 10
73.08469147242295
 20
9.340523727740162
 30
0.0
 11
73.24469115242297
 21
9.340523727740162
 31
0.0
  0
LINE
  5
2FA
330
207
100
AcDbEntity
  8
0
  6
Continuous
 62
     7
100
AcDbLine
 10
73.08569212828294
 20
9.595954791680185
 30
0.0
 11
73.54469044828298
 21
9.595954791680185
 31
0.0
  0
LINE
  5
2FB
330
207
100
AcDbEntity
  8
0
  6
Continuous
 62
     7
100
AcDbLine
 10
73.08569212828294
 20
9.87095804660018
 30
0.0
 11
73.54469044828298
 21
9.87095804660018
 31
0.0
  0
LINE
  5
2FC
330
207
100
AcDbEntity
  8
0
  6
Continuous
 62
     7
100
AcDbLine
 10
73.08569212828294
 20
9.871114729040187
 30
0.0
 11
73.10969257812297
 21
9.871114729040187
 31
0.0
  0
LINE
  5
2FD
330
207
100
AcDbEntity
  8
0
  6
Continuous
 62
     7
100
AcDbLine
 10
73.53469045812295
 20
9.871114729040187
 30
0.0
 11
73.54469044828298
 21
9.871114729040187
 31
0.0
  0
LINE
  5
2FE
330
207
100
AcDbEntity
  8
0
  6
Continuous
 62
     7
100
AcDbLine
 10
73.08569212828294
 20
9.871285787880169
 30
0.0
 11
73.10969257812297
 21
9.871285787880169
 31
0.0
  0
LINE
  5
2FF
330
207
100
AcDbEntity
  8
0
  6
Continuous
 62
     7
100
AcDbLine
 10
73.53469045812295
 20
9.871285787880169
 30
0.0
 11
73.54469044828298
 21
9.871285787880169
 31
0.0
  0
LINE
  5
300
330
207
100
AcDbEntity
  8
0
  6
Continuous
 62
     7
100
AcDbLine
 10
73.08569212828294
 20
9.871442470320176
 30
0.0
 11
73.10969257812297
 21
9.871442470320176
 31
0.0
  0
LINE
  5
301
330
207
100
AcDbEntity
  8
0
  6
Continuous
 62
     7
100
AcDbLine
 10
73.53469045812295
 20
9.871442470320176
 30
0.0
 11
73.54469044828298
 21
9.871442470320176
 31
0.0
  0
LINE
  5
302
330
207
100
AcDbEntity
  8
0
  6
Continuous
 62
     7
100
AcDbLine
 10
73.53469045812295
 20
9.872492320900136
 30
0.0
 11
73.54469044828298
 21
9.872492320900136
 31
0.0
  0
LINE
  5
303
330
207
100
AcDbEntity
  8
0
  6
Continuous
 62
     7
100
AcDbLine
 10
73.53469045812295
 20
9.872649003340172
 30
0.0
 11
73.54469044828298
 21
9.872649003340172
 31
0.0
  0
LINE
  5
304
330
207
100
AcDbEntity
  8
0
  6
Continuous
 62
     7
100
AcDbLine
 10
73.53469045812295
 20
9.87284707508016
 30
0.0
 11
73.54469044828298
 21
9.87284707508016
 31
0.0
  0
LINE
  5
305
330
207
100
AcDbEntity
  8
0
  6
Continuous
 62
     7
100
AcDbLine
 10
73.53469045812295
 20
10.47548706360018
 30
0.0
 11
73.63469012350296
 21
10.47548706360018
 31
0.0
  0
LINE
  5
306
330
207
100
AcDbEntity
  8
0
  6
Continuous
 62
     7
100
AcDbLine
 10
73.08469147242295
 20
10.50892370996016
 30
0.0
 11
73.10969257812297
 21
10.50892370996016
 31
0.0
  0
LINE
  5
307
330
207
100
AcDbEntity
  8
0
  6
Continuous
 62
     7
100
AcDbLine
 10
73.08469147242295
 20
10.50927954110017
 30
0.0
 11
73.10969257812297
 21
10.50927954110017
 31
0.0
  0
LINE
  5
308
330
207
100
AcDbEntity
  8
0
  6
Continuous
 62
     7
100
AcDbLine
 10
73.08569212828294
 20
10.96751391038018
 30
0.0
 11
73.54469044828298
 21
10.96751391038018
 31
0.0
  0
LINE
  5
309
330
207
100
AcDbEntity
  8
0
  6
Continuous
 62
     7
100
AcDbLine
 10
75.679777491283
 20
33.12433666040013
 30
0.0
 11
75.679777491283
 21
29.48998514070016
 31
0.0
  0
LINE
  5
30A
330
207
100
AcDbEntity
  8
0
  6
Continuous
 62
     7
100
AcDbLine
 10
73.08569212828294
 20
11.24251716530017
 30
0.0
 11
73.54469044828298
 21
11.24251716530017
 31
0.0
  0
LINE
  5
30B
330
207
100
AcDbEntity
  8
0
  6
Continuous
 62
     7
100
AcDbLine
 10
73.08569212828294
 20
11.24267384774015
 30
0.0
 11
73.54469044828298
 21
11.24267384774015
 31
0.0
  0
LINE
  5
30C
330
207
100
AcDbEntity
  8
0
  6
Continuous
 62
     7
100
AcDbLine
 10
73.08569212828294
 20
11.24284490658019
 30
0.0
 11
73.54469044828298
 21
11.24284490658019
 31
0.0
  0
LINE
  5
30D
330
207
100
AcDbEntity
  8
0
  6
Continuous
 62
     7
100
AcDbLine
 10
73.08569212828294
 20
11.24300158902014
 30
0.0
 11
73.54469044828298
 21
11.24300158902014
 31
0.0
  0
LINE
  5
30E
330
207
100
AcDbEntity
  8
0
  6
Continuous
 62
     7
100
AcDbLine
 10
73.08569212828294
 20
11.24405144214015
 30
0.0
 11
73.12969240350296
 21
11.24405144214015
 31
0.0
  0
LINE
  5
30F
330
207
100
AcDbEntity
  8
0
  6
Continuous
 62
     7
100
AcDbLine
 10
73.08569212828294
 20
11.24420812458018
 30
0.0
 11
73.12969240350296
 21
11.24420812458018
 31
0.0
  0
LINE
  5
310
330
207
100
AcDbEntity
  8
0
  6
Continuous
 62
     7
100
AcDbLine
 10
73.08569212828294
 20
11.24440619632017
 30
0.0
 11
73.12969240350296
 21
11.24440619632017
 31
0.0
  0
LINE
  5
311
330
207
100
AcDbEntity
  8
0
  6
Continuous
 62
     7
100
AcDbLine
 10
73.08469147242295
 20
11.75369599054019
 30
0.0
 11
73.12969240350296
 21
11.75369599054019
 31
0.0
  0
LINE
  5
312
330
207
100
AcDbEntity
  8
0
  6
Continuous
 62
     7
100
AcDbLine
 10
73.12969240350296
 20
11.77548698074017
 30
0.0
 11
73.63469012350296
 21
11.77548698074017
 31
0.0
  0
LINE
  5
313
330
207
100
AcDbEntity
  8
0
  6
Continuous
 62
     7
100
AcDbLine
 10
73.24469115242297
 20
11.77602154152018
 30
0.0
 11
73.63469012350296
 21
11.77602154152018
 31
0.0
  0
LINE
  5
314
330
207
100
AcDbEntity
  8
0
  6
Continuous
 62
     7
100
AcDbLine
 10
73.08469147242295
 20
12.92209597022017
 30
0.0
 11
73.24469115242297
 21
12.92209597022017
 31
0.0
  0
LINE
  5
315
330
207
100
AcDbEntity
  8
0
  6
Continuous
 62
     7
100
AcDbLine
 10
76.21103887732298
 20
33.98986534844016
 30
0.0
 11
76.21103887732298
 21
29.48986539240016
 31
0.0
  0
LINE
  5
316
330
207
100
AcDbEntity
  8
0
  6
Continuous
 62
     7
100
AcDbLine
 10
76.63469171302299
 20
29.48961164132015
 30
0.0
 11
76.63469171302299
 21
33.48961160168017
 31
0.0
  0
LINE
  5
317
330
207
100
AcDbEntity
  8
0
  6
Continuous
 62
     7
100
AcDbLine
 10
76.65343032426298
 20
29.48986539240016
 30
0.0
 11
76.65343032426298
 21
33.98986534844016
 31
0.0
  0
LINE
  5
318
330
207
100
AcDbEntity
  8
0
  6
Continuous
 62
     7
100
AcDbLine
 10
77.18469171284298
 20
33.12433666040013
 30
0.0
 11
77.18469171284298
 21
29.48998514070016
 31
0.0
  0
LINE
  5
319
330
207
100
AcDbEntity
  8
0
  6
Continuous
 62
     7
100
AcDbLine
 10
78.68469171258297
 20
33.98986534844016
 30
0.0
 11
78.68469171258297
 21
27.78998515742018
 31
0.0
  0
LINE
  5
31A
330
207
100
AcDbEntity
  8
0
  6
Continuous
 62
     7
100
AcDbLine
 10
79.08469171268297
 20
-17.49823312549981
 30
0.0
 11
79.08469171268297
 21
-12.12486405259983
 31
0.0
  0
LINE
  5
31B
102
{ACAD_REACTORS
330
92F
102
}
330
207
100
AcDbEntity
  8
0
  6
Continuous
 62
     7
100
AcDbLine
 10
79.08469171268297
 20
34.00176687404016
 30
0.0
 11
79.08469171268297
 21
39.37513594694013
 31
0.0
  0
LINE
  5
31C
330
207
100
AcDbEntity
  8
0
  6
Continuous
 62
     7
100
AcDbLine
 10
73.08469171372298
 20
25.48961167842018
 30
0.0
 11
73.58469171194298
 21
25.48961167842018
 31
0.0
  0
LINE
  5
31D
330
207
100
AcDbEntity
  8
0
  6
Continuous
 62
     7
100
AcDbLine
 10
75.20598527402299
 20
26.28998517038013
 30
0.0
 11
73.08469171372298
 21
26.28998517038013
 31
0.0
  0
LINE
  5
31E
330
207
100
AcDbEntity
  8
0
  6
Continuous
 62
     7
100
AcDbLine
 10
76.81040805196298
 20
27.78998515742018
 30
0.0
 11
78.68469171258297
 21
27.78998515742018
 31
0.0
  0
LINE
  5
31F
330
207
100
AcDbEntity
  8
0
  6
Continuous
 62
     7
100
AcDbLine
 10
75.679777491283
 20
29.48998514070016
 30
0.0
 11
77.18469171284298
 21
29.48998514070016
 31
0.0
  0
LINE
  5
320
330
207
100
AcDbEntity
  8
0
  6
Continuous
 62
     7
100
AcDbLine
 10
73.08469171372298
 20
33.12433666040013
 30
0.0
 11
75.679777491283
 21
33.12433666040013
 31
0.0
  0
LINE
  5
321
330
207
100
AcDbEntity
  8
0
  6
Continuous
 62
     7
100
AcDbLine
 10
77.18469171284298
 20
33.12433666040013
 30
0.0
 11
78.68469171258297
 21
33.12433666040013
 31
0.0
  0
LINE
  5
322
330
207
100
AcDbEntity
  8
0
  6
Continuous
 62
     7
100
AcDbLine
 10
76.63469171302299
 20
33.48961160168017
 30
0.0
 11
76.21103887732298
 21
33.48961160168017
 31
0.0
  0
LINE
  5
323
330
207
100
AcDbEntity
  8
0
  6
Continuous
 62
     7
100
AcDbLine
 10
70.93469171350296
 20
33.85596180116013
 30
0.0
 11
68.68469171262296
 21
33.85596180116013
 31
0.0
  0
LINE
  5
324
330
207
100
AcDbEntity
  8
0
  6
Continuous
 62
     7
100
AcDbLine
 10
73.08469171372298
 20
33.98986534844016
 30
0.0
 11
76.21103887732298
 21
33.98986534844016
 31
0.0
  0
LINE
  5
325
330
207
100
AcDbEntity
  8
0
  6
Continuous
 62
     7
100
AcDbLine
 10
76.65343032426298
 20
33.98986534844016
 30
0.0
 11
78.68469171258297
 21
33.98986534844016
 31
0.0
  0
LINE
  5
326
330
207
100
AcDbEntity
  8
0
  6
Continuous
 62
     7
100
AcDbLine
 10
79.08469171268297
 20
34.00176687404016
 30
0.0
 11
73.08469171372298
 21
34.00176687404016
 31
0.0
  0
LINE
  5
327
330
207
100
AcDbEntity
  8
0
  6
Continuous
 62
     7
100
AcDbLine
 10
79.08469171268297
 20
34.00577853480019
 30
0.0
 11
73.08469171372298
 21
34.00577853480019
 31
0.0
  0
LINE
  5
328
330
207
100
AcDbEntity
  8
0
  6
Continuous
 62
     7
100
AcDbLine
 10
70.98469171256298
 20
34.18644562330016
 30
0.0
 11
71.28469171200297
 21
34.18644562330016
 31
0.0
  0
LINE
  5
329
330
207
100
AcDbEntity
  8
0
  6
Continuous
 62
     7
100
AcDbLine
 10
70.98469171256298
 20
34.19045728406016
 30
0.0
 11
71.28469171200297
 21
34.19045728406016
 31
0.0
  0
LINE
  5
32A
330
207
100
AcDbEntity
  8
0
  6
Continuous
 62
     7
100
AcDbLine
 10
70.23563205752296
 20
35.2576444080002
 30
0.0
 11
70.22677335032299
 21
35.25532284546017
 31
0.0
  0
LINE
  5
32B
330
207
100
AcDbEntity
  8
0
  6
Continuous
 62
     7
100
AcDbLine
 10
70.22826454368297
 20
35.25169319308014
 30
0.0
 11
70.22677335032299
 21
35.25131118216018
 31
0.0
  0
LINE
  5
32C
330
207
100
AcDbEntity
  8
0
  6
Continuous
 62
     7
100
AcDbLine
 10
79.08469171268297
 20
35.3476893180802
 30
0.0
 11
73.08469171372298
 21
35.3476893180802
 31
0.0
  0
LINE
  5
32D
330
207
100
AcDbEntity
  8
0
  6
Continuous
 62
     7
100
AcDbLine
 10
70.08033343746297
 20
37.01467343140018
 30
0.0
 11
70.23563205752296
 21
36.97295387044016
 31
0.0
  0
LINE
  5
32E
330
207
100
AcDbEntity
  8
0
  6
Continuous
 62
     7
100
AcDbLine
 10
70.08033343746297
 20
37.01066176810019
 30
0.0
 11
70.234494996043
 21
36.96924753292012
 31
0.0
  0
LINE
  5
32F
330
207
100
AcDbEntity
  8
0
  6
Continuous
 62
     7
100
AcDbLine
 10
70.22898806522298
 20
38.12096047460017
 30
0.0
 11
70.23440035564298
 21
38.11948903482016
 31
0.0
  0
LINE
  5
330
330
207
100
AcDbEntity
  8
0
  6
Continuous
 62
     7
100
AcDbLine
 10
70.22677335032299
 20
38.12559163882014
 30
0.0
 11
70.23563205752296
 21
38.12316583214016
 31
0.0
  0
LINE
  5
331
330
207
100
AcDbEntity
  8
0
  6
Continuous
 62
     7
100
AcDbLine
 10
70.22677335032299
 20
38.12157997552021
 30
0.0
 11
70.22898806522298
 21
38.12096047460017
 31
0.0
  0
LINE
  5
332
330
207
100
AcDbEntity
  8
0
  6
Continuous
 62
     7
100
AcDbLine
 10
70.23563205752296
 20
36.40743240560016
 30
0.0
 11
70.08033343746297
 21
36.36592768800017
 31
0.0
  0
LINE
  5
333
330
207
100
AcDbEntity
  8
0
  6
Continuous
 62
     7
100
AcDbLine
 10
71.484691713323
 20
37.18063812868019
 30
0.0
 11
73.08469171372298
 21
37.18063812868019
 31
0.0
  0
LINE
  5
334
330
207
100
AcDbEntity
  8
0
  6
Continuous
 62
     7
100
AcDbLine
 10
71.484691713323
 20
37.57271277760015
 30
0.0
 11
73.08469171372298
 21
37.57271277760015
 31
0.0
  0
LINE
  5
335
330
207
100
AcDbEntity
  8
0
  6
Continuous
 62
     7
100
AcDbLine
 10
71.484691713323
 20
37.94973588944015
 30
0.0
 11
73.08469171372298
 21
37.94973588944015
 31
0.0
  0
LINE
  5
336
330
207
100
AcDbEntity
  8
0
  6
Continuous
 62
     7
100
AcDbLine
 10
79.08469171268297
 20
38.03236802288018
 30
0.0
 11
73.08469171372298
 21
38.03236802288018
 31
0.0
  0
LINE
  5
337
330
207
100
AcDbEntity
  8
0
  6
Continuous
 62
     7
100
AcDbLine
 10
71.484691713323
 20
38.29721671848017
 30
0.0
 11
73.08469171372298
 21
38.29721671848017
 31
0.0
  0
LINE
  5
338
330
207
100
AcDbEntity
  8
0
  6
Continuous
 62
     7
100
AcDbLine
 10
71.484691713323
 20
38.60180116392019
 30
0.0
 11
73.08469171372298
 21
38.60180116392019
 31
0.0
  0
LINE
  5
339
330
207
100
AcDbEntity
  8
0
  6
Continuous
 62
     7
100
AcDbLine
 10
71.484691713323
 20
38.85178821538017
 30
0.0
 11
73.08469171372298
 21
38.85178821538017
 31
0.0
  0
LINE
  5
33A
330
207
100
AcDbEntity
  8
0
  6
Continuous
 62
     7
100
AcDbLine
 10
71.484691713323
 20
39.03756689640016
 30
0.0
 11
73.08469171372298
 21
39.03756689640016
 31
0.0
  0
LINE
  5
33B
330
207
100
AcDbEntity
  8
0
  6
Continuous
 62
     7
100
AcDbLine
 10
71.484691713323
 20
39.15199734826012
 30
0.0
 11
73.08469171372298
 21
39.15199734826012
 31
0.0
  0
LINE
  5
33C
330
207
100
AcDbEntity
  8
0
  6
Continuous
 62
     7
100
AcDbLine
 10
70.98469171256298
 20
39.19045720022018
 30
0.0
 11
71.28469171200297
 21
39.19045720022018
 31
0.0
  0
LINE
  5
33D
330
207
100
AcDbEntity
  8
0
  6
Continuous
 62
     7
100
AcDbLine
 10
71.484691713323
 20
39.19068523888018
 30
0.0
 11
73.08469171372298
 21
39.19068523888018
 31
0.0
  0
LINE
  5
33E
330
207
100
AcDbEntity
  8
0
  6
Continuous
 62
     7
100
AcDbLine
 10
79.08469171268297
 20
39.37513594694013
 30
0.0
 11
73.08469171372298
 21
39.37513594694013
 31
0.0
  0
LINE
  5
33F
330
207
100
AcDbEntity
  8
0
  6
Continuous
 62
     7
100
AcDbLine
 10
92.82337433652538
 20
38.60180116392019
 30
0.0
 11
93.12786664092539
 21
38.85178821538017
 31
0.0
  0
LINE
  5
340
330
207
100
AcDbEntity
  8
0
  6
Continuous
 62
     7
100
AcDbLine
 10
92.4195391015254
 20
38.03236802288018
 30
0.0
 11
94.74429162752537
 21
39.37513594694013
 31
0.0
  0
LINE
  5
341
330
207
100
AcDbEntity
  8
0
  6
Continuous
 62
     7
100
AcDbLine
 10
93.12786664092539
 20
38.85178821538017
 30
0.0
 11
93.4752790017254
 21
39.03756689640016
 31
0.0
  0
LINE
  5
342
330
207
100
AcDbEntity
  8
0
  6
Continuous
 62
     7
100
AcDbLine
 10
93.4752790017254
 20
39.03756689640016
 30
0.0
 11
93.8522599546454
 21
39.15199734826012
 31
0.0
  0
LINE
  5
343
330
207
100
AcDbEntity
  8
0
  6
Continuous
 62
     7
100
AcDbLine
 10
93.8626640130854
 20
-17.29011385415984
 30
0.0
 11
93.48564089870538
 21
-17.17582238855982
 31
0.0
  0
LINE
  5
344
330
207
100
AcDbEntity
  8
0
  6
Continuous
 62
     7
100
AcDbLine
 10
93.48564089870538
 20
-17.17582238855982
 30
0.0
 11
93.13816007220538
 21
-16.99017179719982
 31
0.0
  0
LINE
  5
345
330
207
100
AcDbEntity
  8
0
  6
Continuous
 62
     7
100
AcDbLine
 10
94.74528136900537
 20
-17.49422146473984
 30
0.0
 11
92.42003397226537
 21
-16.15231068145985
 31
0.0
  0
LINE
  5
346
330
207
100
AcDbEntity
  8
0
  6
Continuous
 62
     7
100
AcDbLine
 10
93.13816007220538
 20
-16.99017179719982
 30
0.0
 11
92.8335756267654
 21
-16.74029701627981
 31
0.0
  0
LINE
  5
347
330
207
100
AcDbEntity
  8
0
  6
Continuous
 62
     7
100
AcDbLine
 10
92.5734995556054
 20
38.29721671848017
 30
0.0
 11
92.82337433652538
 21
38.60180116392019
 31
0.0
  0
LINE
  5
348
330
207
100
AcDbEntity
  8
0
  6
Continuous
 62
     7
100
AcDbLine
 10
124.6468030898454
 20
-17.28444190715985
 30
0.0
 11
124.2547408945454
 21
-17.32312979777984
 31
0.0
  0
LINE
  5
349
330
207
100
AcDbEntity
  8
0
  6
Continuous
 62
     7
100
AcDbLine
 10
94.25473865946535
 20
-17.31897980099981
 30
0.0
 11
93.8626640130854
 21
-17.29011385415984
 31
0.0
  0
LINE
  5
34C
330
207
100
AcDbEntity
  8
0
  6
Continuous
 62
     7
100
AcDbLine
 10
92.8335756267654
 20
-16.74029701627981
 30
0.0
 11
92.58358857530538
 21
-16.4358047118798
 31
0.0
  0
LINE
  5
34D
330
207
100
AcDbEntity
  8
0
  6
Continuous
 62
     7
100
AcDbLine
 10
92.38784896424536
 20
37.94973588944015
 30
0.0
 11
92.4195433992054
 21
38.00905812792018
 31
0.0
  0
LINE
  5
34E
330
207
100
AcDbEntity
  8
0
  6
Continuous
 62
     7
100
AcDbLine
 10
92.43755780310539
 20
38.04277555604017
 30
0.0
 11
92.5734995556054
 21
38.29721671848017
 31
0.0
  0
LINE
  5
34F
330
207
100
AcDbEntity
  8
0
  6
Continuous
 62
     7
100
AcDbLine
 10
97.07003389500537
 20
35.3485464588602
 30
0.0
 11
94.74528136900537
 21
34.00577853480019
 31
0.0
  0
LINE
  5
350
330
207
100
AcDbEntity
  8
0
  6
Continuous
 62
     7
100
AcDbLine
 10
94.25473865946535
 20
-17.31897980099981
 30
0.0
 11
94.4416694616254
 21
-17.31900566073983
 31
0.0
  0
LINE
  5
351
330
207
100
AcDbEntity
  8
0
  6
Continuous
 62
     7
100
AcDbLine
 10
95.04848956116538
 20
-17.31908960265983
 30
0.0
 11
123.4416691856654
 21
-17.32301732149983
 31
0.0
  0
LINE
  5
352
330
207
100
AcDbEntity
  8
0
  6
Continuous
 62
     7
100
AcDbLine
 10
124.0484892852053
 20
-17.32310126595982
 30
0.0
 11
124.2547408945454
 21
-17.32312979777984
 31
0.0
  0
LINE
  5
355
330
207
100
AcDbEntity
  8
0
  6
Continuous
 62
     7
100
AcDbLine
 10
94.74429162752537
 20
-12.12486405259983
 30
0.0
 11
97.06953902426537
 21
-13.46677483587982
 31
0.0
  0
LINE
  5
356
330
207
100
AcDbEntity
  8
0
  6
Continuous
 62
     7
100
AcDbLine
 10
92.58358857530538
 20
-16.4358047118798
 30
0.0
 11
92.43732692218538
 21
-16.16229052179986
 31
0.0
  0
LINE
  5
357
330
207
100
AcDbEntity
  8
0
  6
Continuous
 62
     7
100
AcDbLine
 10
92.4200298498454
 20
-16.12994441935982
 30
0.0
 11
92.3978098917454
 21
-16.08839235107985
 31
0.0
  0
LINE
  5
35A
330
207
100
AcDbEntity
  8
0
  6
Continuous
 62
     7
100
AcDbLine
 10
92.2735574986454
 20
37.57271277760015
 30
0.0
 11
92.38784896424536
 21
37.94973588944015
 31
0.0
  0
LINE
  5
35F
330
207
100
AcDbEntity
  8
0
  6
Continuous
 62
     7
100
AcDbLine
 10
92.3978098917454
 20
-16.08839235107985
 30
0.0
 11
92.28337943988538
 21
-15.71141139815984
 31
0.0
  0
LINE
  5
362
330
207
100
AcDbEntity
  8
0
  6
Continuous
 62
     7
100
AcDbLine
 10
92.28337943988538
 20
-15.71141139815984
 30
0.0
 11
92.24469155180537
 21
-15.31934920285983
 31
0.0
  0
LINE
  5
363
330
207
100
AcDbEntity
  8
0
  6
Continuous
 62
     7
100
AcDbLine
 10
92.24469155180537
 20
37.18063812868019
 30
0.0
 11
92.2735574986454
 21
37.57271277760015
 31
0.0
  0
LINE
  5
364
330
207
100
AcDbEntity
  8
0
  6
Continuous
 62
     7
100
AcDbLine
 10
92.42003397226537
 20
-16.15231068145985
 30
0.0
 11
92.4195391015254
 21
-13.46763197665982
 31
0.0
  0
LINE
  5
365
330
207
100
AcDbEntity
  8
0
  6
Continuous
 62
     7
100
AcDbLine
 10
92.42003397226537
 20
35.3476893180802
 30
0.0
 11
92.4195391015254
 21
38.03236802288018
 31
0.0
  0
LINE
  5
366
330
207
100
AcDbEntity
  8
0
  6
Continuous
 62
     7
100
AcDbLine
 10
92.24469155180537
 20
37.18063812868019
 30
0.0
 11
92.24469155180537
 21
-15.31934920285983
 31
0.0
  0
LINE
  5
367
330
207
100
AcDbEntity
  8
0
  6
Continuous
 62
     7
100
AcDbLine
 10
121.4195388255654
 20
38.02835636212018
 30
0.0
 11
123.7442913515654
 21
39.37112428618019
 31
0.0
  0
LINE
  5
368
330
207
100
AcDbEntity
  8
0
  6
Continuous
 62
     7
100
AcDbLine
 10
123.7452810930454
 20
-17.49823312549981
 30
0.0
 11
121.4200336963054
 21
-16.15632234475981
 31
0.0
  0
LINE
  5
369
330
207
100
AcDbEntity
  8
0
  6
Continuous
 62
     7
100
AcDbLine
 10
97.06953902426537
 20
-13.46677483587982
 30
0.0
 11
97.07003389500537
 21
-16.15145354067985
 31
0.0
  0
LINE
  5
36A
330
207
100
AcDbEntity
  8
0
  6
Continuous
 62
     7
100
AcDbLine
 10
97.06953902426537
 20
38.03322516620017
 30
0.0
 11
97.07003389500537
 21
35.3485464588602
 31
0.0
  0
LINE
  5
36B
330
207
100
AcDbEntity
  8
0
  6
Continuous
 62
     7
100
AcDbLine
 10
126.0700336165054
 20
35.34453479810014
 30
0.0
 11
123.7452810930454
 21
34.00176687404016
 31
0.0
  0
LINE
  5
36C
330
207
100
AcDbEntity
  8
0
  6
Continuous
 62
     7
100
AcDbLine
 10
123.7442913515654
 20
-12.1288757133598
 30
0.0
 11
126.0695387457654
 21
-13.47078649663982
 31
0.0
  0
LINE
  5
36D
330
207
100
AcDbEntity
  8
0
  6
Continuous
 62
     7
100
AcDbLine
 10
99.30510960264539
 20
33.12433666040013
 30
0.0
 11
99.30416418416539
 21
26.28998517038013
 31
0.0
  0
LINE
  5
36E
330
207
100
AcDbEntity
  8
0
  6
Continuous
 62
     7
100
AcDbLine
 10
100.0043716763054
 20
27.78988832246017
 30
0.0
 11
100.0041641786254
 21
26.28988833796018
 31
0.0
  0
LINE
  5
36F
330
207
100
AcDbEntity
  8
0
  6
Continuous
 62
     7
100
AcDbLine
 10
100.1708777847454
 20
33.98986534844016
 30
0.0
 11
100.1707580364454
 21
33.12421691210017
 31
0.0
  0
LINE
  5
370
330
207
100
AcDbEntity
  8
0
  6
Continuous
 62
     7
100
AcDbLine
 10
100.7543716698254
 20
27.78978457362015
 30
0.0
 11
100.7549803351054
 21
32.18978453154014
 31
0.0
  0
LINE
  5
371
330
207
100
AcDbEntity
  8
0
  6
Continuous
 62
     7
100
AcDbLine
 10
100.8046068347854
 20
29.48977764048018
 30
0.0
 11
100.8049803367054
 21
32.18977761512016
 31
0.0
  0
LINE
  5
372
330
207
100
AcDbEntity
  8
0
  6
Continuous
 62
     7
100
AcDbLine
 10
101.7543716611854
 20
27.78964624014017
 30
0.0
 11
101.7549803264654
 21
32.18964619806016
 31
0.0
  0
LINE
  5
373
330
207
100
AcDbEntity
  8
0
  6
Continuous
 62
     7
100
AcDbLine
 10
102.0040534910054
 20
25.48961167842018
 30
0.0
 11
102.0043716590254
 21
27.78961165804014
 31
0.0
  0
LINE
  5
374
330
207
100
AcDbEntity
  8
0
  6
Continuous
 62
     7
100
AcDbLine
 10
102.5040534866854
 20
25.48954251168016
 30
0.0
 11
102.5043716521654
 21
27.78954249130015
 31
0.0
  0
LINE
  5
375
330
207
100
AcDbEntity
  8
0
  6
Continuous
 62
     7
100
AcDbLine
 10
103.9465599895254
 20
11.24251716530017
 30
0.0
 11
103.9466106803054
 21
10.96751391038018
 31
0.0
  0
LINE
  5
376
330
207
100
AcDbEntity
  8
0
  6
Continuous
 62
     7
100
AcDbLine
 10
103.9468128109654
 20
9.87095804660018
 30
0.0
 11
103.9468635017454
 21
9.595954791680185
 31
0.0
  0
LINE
  5
377
330
207
100
AcDbEntity
  8
0
  6
Continuous
 62
     7
100
AcDbLine
 10
103.9716119003054
 20
10.96751852048016
 30
0.0
 11
103.9718140309654
 21
9.870962654160195
 31
0.0
  0
LINE
  5
378
330
207
100
AcDbEntity
  8
0
  6
Continuous
 62
     7
100
AcDbLine
 10
104.7718124157254
 20
9.871110118940152
 30
0.0
 11
104.7716102876054
 21
10.96766598526017
 31
0.0
  0
LINE
  5
379
330
207
100
AcDbEntity
  8
0
  6
Continuous
 62
     7
100
AcDbLine
 10
104.7968643290454
 20
9.596111474120136
 30
0.0
 11
104.7968136357254
 21
9.871114729040187
 31
0.0
  0
LINE
  5
37A
330
207
100
AcDbEntity
  8
0
  6
Continuous
 62
     7
100
AcDbLine
 10
104.7966115076053
 20
10.96767059282016
 30
0.0
 11
104.7965608142854
 21
11.24267384774015
 31
0.0
  0
LINE
  5
37B
330
207
100
AcDbEntity
  8
0
  6
Continuous
 62
     7
100
AcDbLine
 10
104.0040534737253
 20
25.48933501146016
 30
0.0
 11
104.0043716392054
 21
27.78933499108018
 31
0.0
  0
LINE
  5
37C
330
207
100
AcDbEntity
  8
0
  6
Continuous
 62
     7
100
AcDbLine
 10
104.5040534668654
 20
25.48926584472017
 30
0.0
 11
104.5043716348854
 21
27.78926582434019
 31
0.0
  0
LINE
  5
37D
330
207
100
AcDbEntity
  8
0
  6
Continuous
 62
     7
100
AcDbLine
 10
105.7245598371254
 20
11.24284490658019
 30
0.0
 11
105.7246105279054
 21
10.96784165166019
 31
0.0
  0
LINE
  5
37E
330
207
100
AcDbEntity
  8
0
  6
Continuous
 62
     7
100
AcDbLine
 10
105.7248126585654
 20
9.871285787880169
 30
0.0
 11
105.7248633493454
 21
9.596282532960174
 31
0.0
  0
LINE
  5
37F
330
207
100
AcDbEntity
  8
0
  6
Continuous
 62
     7
100
AcDbLine
 10
105.7496117479054
 20
10.96784626176017
 30
0.0
 11
105.7498138785654
 21
9.871290395440184
 31
0.0
  0
LINE
  5
380
330
207
100
AcDbEntity
  8
0
  6
Continuous
 62
     7
100
AcDbLine
 10
106.5498122633254
 20
9.87143786022017
 30
0.0
 11
106.5496101352054
 21
10.96799372654019
 31
0.0
  0
LINE
  5
381
330
207
100
AcDbEntity
  8
0
  6
Continuous
 62
     7
100
AcDbLine
 10
106.5748641766454
 20
9.596439215400153
 30
0.0
 11
106.5748134833254
 21
9.871442470320176
 31
0.0
  0
LINE
  5
382
330
207
100
AcDbEntity
  8
0
  6
Continuous
 62
     7
100
AcDbLine
 10
106.5746113552053
 20
10.96799833410014
 30
0.0
 11
106.5745606618854
 21
11.24300158902014
 31
0.0
  0
LINE
  5
383
330
207
100
AcDbEntity
  8
0
  6
Continuous
 62
     7
100
AcDbLine
 10
106.0040534539054
 20
25.48905834704016
 30
0.0
 11
106.0043716193854
 21
27.78905832412016
 31
0.0
  0
LINE
  5
384
330
207
100
AcDbEntity
  8
0
  6
Continuous
 62
     7
100
AcDbLine
 10
106.5040534495854
 20
25.48898918030017
 30
0.0
 11
106.5043716150654
 21
27.78898915738017
 31
0.0
  0
LINE
  5
385
330
207
100
AcDbEntity
  8
0
  6
Continuous
 62
     7
100
AcDbLine
 10
107.6816204340454
 20
10.47548706360018
 30
0.0
 11
107.6813808028254
 21
11.77548698074017
 31
0.0
  0
LINE
  5
386
330
207
100
AcDbEntity
  8
0
  6
Continuous
 62
     7
100
AcDbLine
 10
107.8768201808054
 20
10.47552304524018
 30
0.0
 11
107.8770293955254
 21
9.340523727740162
 31
0.0
  0
LINE
  5
387
330
207
100
AcDbEntity
  8
0
  6
Continuous
 62
     7
100
AcDbLine
 10
108.4612293853654
 20
9.340631416120146
 30
0.0
 11
108.4610201706454
 21
10.47563073108014
 31
0.0
  0
LINE
  5
388
330
207
100
AcDbEntity
  8
0
  6
Continuous
 62
     7
100
AcDbLine
 10
108.8415715482254
 20
12.92209597022017
 30
0.0
 11
108.8417828635254
 21
11.77570087922018
 31
0.0
  0
LINE
  5
389
330
207
100
AcDbEntity
  8
0
  6
Continuous
 62
     7
100
AcDbLine
 10
109.4259828533653
 20
11.7758085650602
 30
0.0
 11
109.4257715380654
 21
12.92220365606019
 31
0.0
  0
LINE
  5
38A
330
207
100
AcDbEntity
  8
0
  6
Continuous
 62
     7
100
AcDbLine
 10
108.0040534340854
 20
25.48878168008017
 30
0.0
 11
108.0043715995654
 21
27.7887816571602
 31
0.0
  0
LINE
  5
38B
330
207
100
AcDbEntity
  8
0
  6
Continuous
 62
     7
100
AcDbLine
 10
108.5040534297654
 20
25.48871251334018
 30
0.0
 11
108.5043715952454
 21
27.78871249042015
 31
0.0
  0
LINE
  5
38C
330
207
100
AcDbEntity
  8
0
  6
Continuous
 62
     7
100
AcDbLine
 10
107.8770293955254
 20
9.340523727740162
 30
0.0
 11
108.4612293853654
 21
9.340631416120146
 31
0.0
  0
LINE
  5
38D
330
207
100
AcDbEntity
  8
0
  6
Continuous
 62
     7
100
AcDbLine
 10
109.8074263957854
 20
9.340879561420138
 30
0.0
 11
110.3916263881654
 21
9.34098724726016
 31
0.0
  0
LINE
  5
38E
330
207
100
AcDbEntity
  8
0
  6
Continuous
 62
     7
100
AcDbLine
 10
103.9468635017454
 20
9.595954791680185
 30
0.0
 11
104.7968643290454
 21
9.596111474120136
 31
0.0
  0
LINE
  5
38F
330
207
100
AcDbEntity
  8
0
  6
Continuous
 62
     7
100
AcDbLine
 10
105.7248633493454
 20
9.596282532960174
 30
0.0
 11
106.5748641766454
 21
9.596439215400153
 31
0.0
  0
LINE
  5
390
330
207
100
AcDbEntity
  8
0
  6
Continuous
 62
     7
100
AcDbLine
 10
113.3448659680854
 20
9.597687137720158
 30
0.0
 11
114.1948667928454
 21
9.597843820160193
 31
0.0
  0
LINE
  5
391
330
207
100
AcDbEntity
  8
0
  6
Continuous
 62
     7
100
AcDbLine
 10
111.5666982493453
 20
9.59748906598017
 30
0.0
 11
112.4166990741053
 21
9.597645748420177
 31
0.0
  0
LINE
  5
392
330
207
100
AcDbEntity
  8
0
  6
Continuous
 62
     7
100
AcDbLine
 10
114.1948161020654
 20
9.87284707508016
 30
0.0
 11
113.3448152747654
 21
9.872690395180172
 31
0.0
  0
LINE
  5
393
330
207
100
AcDbEntity
  8
0
  6
Continuous
 62
     7
100
AcDbLine
 10
106.5748134833254
 20
9.871442470320176
 30
0.0
 11
105.7248126585654
 21
9.871285787880169
 31
0.0
  0
LINE
  5
394
330
207
100
AcDbEntity
  8
0
  6
Continuous
 62
     7
100
AcDbLine
 10
104.7968136357254
 20
9.871114729040187
 30
0.0
 11
103.9468128109654
 21
9.87095804660018
 31
0.0
  0
LINE
  5
395
330
207
100
AcDbEntity
  8
0
  6
Continuous
 62
     7
100
AcDbLine
 10
112.4166483833254
 20
9.872649003340172
 30
0.0
 11
111.5666475585654
 21
9.872492320900136
 31
0.0
  0
LINE
  5
396
330
207
100
AcDbEntity
  8
0
  6
Continuous
 62
     7
100
AcDbLine
 10
110.5692193832454
 20
10.47601933838018
 30
0.0
 11
107.6816204340454
 21
10.47548706360018
 31
0.0
  0
LINE
  5
397
330
207
100
AcDbEntity
  8
0
  6
Continuous
 62
     7
100
AcDbLine
 10
103.9466106803054
 20
10.96751391038018
 30
0.0
 11
104.7966115076053
 21
10.96767059282016
 31
0.0
  0
LINE
  5
398
330
207
100
AcDbEntity
  8
0
  6
Continuous
 62
     7
100
AcDbLine
 10
105.7246105279054
 20
10.96784165166019
 30
0.0
 11
106.5746113552053
 21
10.96799833410014
 31
0.0
  0
LINE
  5
399
330
207
100
AcDbEntity
  8
0
  6
Continuous
 62
     7
100
AcDbLine
 10
113.3446131466454
 20
10.96924625896017
 30
0.0
 11
114.1946139714054
 21
10.96940294140015
 31
0.0
  0
LINE
  5
39A
330
207
100
AcDbEntity
  8
0
  6
Continuous
 62
     7
100
AcDbLine
 10
111.5664454279054
 20
10.96904818722015
 30
0.0
 11
112.4164462526654
 21
10.96920486712017
 31
0.0
  0
LINE
  5
39B
330
207
100
AcDbEntity
  8
0
  6
Continuous
 62
     7
100
AcDbLine
 10
109.8072171810654
 20
10.47587887638016
 30
0.0
 11
109.8074263957854
 21
9.340879561420138
 31
0.0
  0
LINE
  5
39C
330
207
100
AcDbEntity
  8
0
  6
Continuous
 62
     7
100
AcDbLine
 10
110.3916263881654
 20
9.34098724726016
 30
0.0
 11
110.3914171709054
 21
10.47598656222019
 31
0.0
  0
LINE
  5
39D
330
207
100
AcDbEntity
  8
0
  6
Continuous
 62
     7
100
AcDbLine
 10
111.5663947345854
 20
11.24405144214015
 30
0.0
 11
111.5664454279054
 21
10.96904818722015
 31
0.0
  0
LINE
  5
39E
330
207
100
AcDbEntity
  8
0
  6
Continuous
 62
     7
100
AcDbLine
 10
111.5666475585654
 20
9.872492320900136
 30
0.0
 11
111.5666982493453
 21
9.59748906598017
 31
0.0
  0
LINE
  5
39F
330
207
100
AcDbEntity
  8
0
  6
Continuous
 62
     7
100
AcDbLine
 10
111.5914466479054
 20
10.9690527947802
 30
0.0
 11
111.5916487760254
 21
9.872496931000171
 31
0.0
  0
LINE
  5
3A0
330
207
100
AcDbEntity
  8
0
  6
Continuous
 62
     7
100
AcDbLine
 10
110.0040534142654
 20
25.48850501312018
 30
0.0
 11
110.0043715822853
 21
27.78850499274017
 31
0.0
  0
LINE
  5
3A1
330
207
100
AcDbEntity
  8
0
  6
Continuous
 62
     7
100
AcDbLine
 10
110.5040534099454
 20
25.48843584638018
 30
0.0
 11
110.5043715754254
 21
27.78843582600018
 31
0.0
  0
LINE
  5
3A2
330
207
100
AcDbEntity
  8
0
  6
Continuous
 62
     7
100
AcDbLine
 10
110.5692193832454
 20
10.47601933838018
 30
0.0
 11
110.5813800320254
 21
11.77602154152018
 31
0.0
  0
LINE
  5
3A3
330
207
100
AcDbEntity
  8
0
  6
Continuous
 62
     7
100
AcDbLine
 10
114.1945632806253
 20
11.24440619632017
 30
0.0
 11
113.3445624533254
 21
11.24424951388016
 31
0.0
  0
LINE
  5
3A4
330
207
100
AcDbEntity
  8
0
  6
Continuous
 62
     7
100
AcDbLine
 10
106.5745606618854
 20
11.24300158902014
 30
0.0
 11
105.7245598371254
 21
11.24284490658019
 31
0.0
  0
LINE
  5
3A5
330
207
100
AcDbEntity
  8
0
  6
Continuous
 62
     7
100
AcDbLine
 10
104.7965608142854
 20
11.24267384774015
 30
0.0
 11
103.9465599895254
 21
11.24251716530017
 31
0.0
  0
LINE
  5
3A6
330
207
100
AcDbEntity
  8
0
  6
Continuous
 62
     7
100
AcDbLine
 10
112.4163955618854
 20
11.24420812458018
 30
0.0
 11
111.5663947345854
 21
11.24405144214015
 31
0.0
  0
LINE
  5
3A7
330
207
100
AcDbEntity
  8
0
  6
Continuous
 62
     7
100
AcDbLine
 10
107.6813808028254
 20
11.77548698074017
 30
0.0
 11
110.5813800320254
 21
11.77602154152018
 31
0.0
  0
LINE
  5
3A8
330
207
100
AcDbEntity
  8
0
  6
Continuous
 62
     7
100
AcDbLine
 10
109.4257715380654
 20
12.92220365606019
 30
0.0
 11
108.8415715482254
 21
12.92209597022017
 31
0.0
  0
LINE
  5
3A9
330
207
100
AcDbEntity
  8
0
  6
Continuous
 62
     7
100
AcDbLine
 10
112.3916471633254
 20
9.872644395780185
 30
0.0
 11
112.3914450326654
 21
10.96920025956015
 31
0.0
  0
LINE
  5
3AA
330
207
100
AcDbEntity
  8
0
  6
Continuous
 62
     7
100
AcDbLine
 10
112.4166990741053
 20
9.597645748420177
 30
0.0
 11
112.4166483833254
 21
9.872649003340172
 31
0.0
  0
LINE
  5
3AB
330
207
100
AcDbEntity
  8
0
  6
Continuous
 62
     7
100
AcDbLine
 10
112.4164462526654
 20
10.96920486712017
 30
0.0
 11
112.4163955618854
 21
11.24420812458018
 31
0.0
  0
LINE
  5
3AC
330
207
100
AcDbEntity
  8
0
  6
Continuous
 62
     7
100
AcDbLine
 10
113.3445624533254
 20
11.24424951388016
 30
0.0
 11
113.3446131466454
 21
10.96924625896017
 31
0.0
  0
LINE
  5
3AD
330
207
100
AcDbEntity
  8
0
  6
Continuous
 62
     7
100
AcDbLine
 10
113.3448152747654
 20
9.872690395180172
 30
0.0
 11
113.3448659680854
 21
9.597687137720158
 31
0.0
  0
LINE
  5
3AE
330
207
100
AcDbEntity
  8
0
  6
Continuous
 62
     7
100
AcDbLine
 10
113.3696143666454
 20
10.96925086652016
 30
0.0
 11
113.3698164947654
 21
9.872695002740187
 31
0.0
  0
LINE
  5
3AF
330
207
100
AcDbEntity
  8
0
  6
Continuous
 62
     7
100
AcDbLine
 10
112.0040533969854
 20
25.48822834616016
 30
0.0
 11
112.0043715624653
 21
27.78822832578015
 31
0.0
  0
LINE
  5
3B0
330
207
100
AcDbEntity
  8
0
  6
Continuous
 62
     7
100
AcDbLine
 10
112.5040533901254
 20
25.48815917942017
 30
0.0
 11
112.5043715581454
 21
27.78815915904016
 31
0.0
  0
LINE
  5
3B1
330
207
100
AcDbEntity
  8
0
  6
Continuous
 62
     7
100
AcDbLine
 10
114.1698148820654
 20
9.872842467520144
 30
0.0
 11
114.1696127514054
 21
10.96939833130017
 31
0.0
  0
LINE
  5
3B2
330
207
100
AcDbEntity
  8
0
  6
Continuous
 62
     7
100
AcDbLine
 10
114.1948667928454
 20
9.597843820160193
 30
0.0
 11
114.1948161020654
 21
9.87284707508016
 31
0.0
  0
LINE
  5
3B3
330
207
100
AcDbEntity
  8
0
  6
Continuous
 62
     7
100
AcDbLine
 10
114.1946139714054
 20
10.96940294140015
 30
0.0
 11
114.1945632806253
 21
11.24440619632017
 31
0.0
  0
LINE
  5
3B4
330
207
100
AcDbEntity
  8
0
  6
Continuous
 62
     7
100
AcDbLine
 10
114.0040533771653
 20
25.48795168174018
 30
0.0
 11
114.0043715426453
 21
27.78795165882019
 31
0.0
  0
LINE
  5
3B5
330
207
100
AcDbEntity
  8
0
  6
Continuous
 62
     7
100
AcDbLine
 10
114.5040533728454
 20
25.48788251500019
 30
0.0
 11
114.5043715383254
 21
27.78788249208014
 31
0.0
  0
LINE
  5
3B6
330
207
100
AcDbEntity
  8
0
  6
Continuous
 62
     7
100
AcDbLine
 10
116.0040533573454
 20
25.48767501478017
 30
0.0
 11
116.0043715228254
 21
27.78767499186017
 31
0.0
  0
LINE
  5
3B7
330
207
100
AcDbEntity
  8
0
  6
Continuous
 62
     7
100
AcDbLine
 10
116.5040533530254
 20
25.48760584804018
 30
0.0
 11
116.5043715185054
 21
27.78760582512018
 31
0.0
  0
LINE
  5
3B8
330
207
100
AcDbEntity
  8
0
  6
Continuous
 62
     7
100
AcDbLine
 10
116.7543715163454
 20
27.78757124302015
 30
0.0
 11
116.7549801816254
 21
32.18757120094017
 31
0.0
  0
LINE
  5
3B9
330
207
100
AcDbEntity
  8
0
  6
Continuous
 62
     7
100
AcDbLine
 10
117.7046066745453
 20
29.48743980924016
 30
0.0
 11
117.7049801739254
 21
32.18743978388017
 31
0.0
  0
LINE
  5
3BA
330
207
100
AcDbEntity
  8
0
  6
Continuous
 62
     7
100
AcDbLine
 10
117.7543715077053
 20
27.78743290954017
 30
0.0
 11
117.7549801729854
 21
32.18743286746016
 31
0.0
  0
LINE
  5
3BB
330
207
100
AcDbEntity
  8
0
  6
Continuous
 62
     7
100
AcDbLine
 10
118.3395807233654
 20
33.98735201590014
 30
0.0
 11
118.3394609750654
 21
33.12170357956018
 31
0.0
  0
LINE
  5
3BC
330
207
100
AcDbEntity
  8
0
  6
Continuous
 62
     7
100
AcDbLine
 10
118.5043715012254
 20
27.78732916070015
 30
0.0
 11
118.5041640010054
 21
26.28732917366017
 31
0.0
  0
LINE
  5
3BD
330
207
100
AcDbEntity
  8
0
  6
Continuous
 62
     7
100
AcDbLine
 10
119.2041639929254
 20
26.28723234124018
 30
0.0
 11
119.2051094114054
 21
33.12158383126018
 31
0.0
  0
LINE
  5
3BE
330
207
100
AcDbEntity
  8
0
  6
Continuous
 62
     7
100
AcDbLine
 10
121.4200336963054
 20
-16.15632234475981
 30
0.0
 11
121.4195388255654
 21
-13.47164363741985
 31
0.0
  0
LINE
  5
3BF
330
207
100
AcDbEntity
  8
0
  6
Continuous
 62
     7
100
AcDbLine
 10
121.4200336963054
 20
35.34367765478015
 30
0.0
 11
121.4195388255654
 21
38.02835636212018
 31
0.0
  0
LINE
  5
3C0
330
207
100
AcDbEntity
  8
0
  6
Continuous
 62
     7
100
AcDbLine
 10
92.4195391015254
 20
-13.46763197665982
 30
0.0
 11
94.74429162752537
 21
-12.12486405259983
 31
0.0
  0
LINE
  5
3C1
330
207
100
AcDbEntity
  8
0
  6
Continuous
 62
     7
100
AcDbLine
 10
94.74528136900537
 20
34.00577853480019
 30
0.0
 11
92.42003397226537
 21
35.3476893180802
 31
0.0
  0
LINE
  5
3C2
330
207
100
AcDbEntity
  8
0
  6
Continuous
 62
     7
100
AcDbLine
 10
116.5040533530254
 20
25.48760584804018
 30
0.0
 11
116.0040533573454
 21
25.48767501478017
 31
0.0
  0
LINE
  5
3C3
330
207
100
AcDbEntity
  8
0
  6
Continuous
 62
     7
100
AcDbLine
 10
114.5040533728454
 20
25.48788251500019
 30
0.0
 11
114.0040533771653
 21
25.48795168174018
 31
0.0
  0
LINE
  5
3C4
330
207
100
AcDbEntity
  8
0
  6
Continuous
 62
     7
100
AcDbLine
 10
112.5040533901254
 20
25.48815917942017
 30
0.0
 11
112.0040533969854
 21
25.48822834616016
 31
0.0
  0
LINE
  5
3C5
330
207
100
AcDbEntity
  8
0
  6
Continuous
 62
     7
100
AcDbLine
 10
110.5040534099454
 20
25.48843584638018
 30
0.0
 11
110.0040534142654
 21
25.48850501312018
 31
0.0
  0
LINE
  5
3C6
330
207
100
AcDbEntity
  8
0
  6
Continuous
 62
     7
100
AcDbLine
 10
108.5040534297654
 20
25.48871251334018
 30
0.0
 11
108.0040534340854
 21
25.48878168008017
 31
0.0
  0
LINE
  5
3C7
330
207
100
AcDbEntity
  8
0
  6
Continuous
 62
     7
100
AcDbLine
 10
106.5040534495854
 20
25.48898918030017
 30
0.0
 11
106.0040534539054
 21
25.48905834704016
 31
0.0
  0
LINE
  5
3C8
102
{ACAD_REACTORS
330
8ED
102
}
330
207
100
AcDbEntity
  8
0
  6
Continuous
 62
     7
100
AcDbLine
 10
104.5040534668654
 20
25.48926584472017
 30
0.0
 11
104.0040534737253
 21
25.48933501146016
 31
0.0
  0
LINE
  5
3C9
102
{ACAD_REACTORS
330
8ED
102
}
330
207
100
AcDbEntity
  8
0
  6
Continuous
 62
     7
100
AcDbLine
 10
102.5040534866854
 20
25.48954251168016
 30
0.0
 11
102.0040534910054
 21
25.48961167842018
 31
0.0
  0
LINE
  5
3CA
330
207
100
AcDbEntity
  8
0
  6
Continuous
 62
     7
100
AcDbLine
 10
119.2041639929254
 20
26.28723234124018
 30
0.0
 11
118.5041640010054
 21
26.28732917366017
 31
0.0
  0
LINE
  5
3CB
330
207
100
AcDbEntity
  8
0
  6
Continuous
 62
     7
100
AcDbLine
 10
99.30416418416539
 20
26.28998517038013
 30
0.0
 11
100.0041641786254
 21
26.28988833796018
 31
0.0
  0
LINE
  5
3CC
330
207
100
AcDbEntity
  8
0
  6
Continuous
 62
     7
100
AcDbLine
 10
126.0695387457654
 20
-13.47078649663982
 30
0.0
 11
126.0700336165054
 21
-16.15546520397984
 31
0.0
  0
LINE
  5
3CD
330
207
100
AcDbEntity
  8
0
  6
Continuous
 62
     7
100
AcDbLine
 10
126.0695387457654
 20
38.02921350290018
 30
0.0
 11
126.0700336165054
 21
35.34453479810014
 31
0.0
  0
LINE
  5
3CE
330
207
100
AcDbEntity
  8
0
  6
Continuous
 62
     7
100
AcDbLine
 10
126.2543714926854
 20
-15.31308268757985
 30
0.0
 11
126.2543714926854
 21
37.18690464396013
 31
0.0
  0
LINE
  5
3CF
330
207
100
AcDbEntity
  8
0
  6
Continuous
 62
     7
100
AcDbLine
 10
97.07003389500537
 20
-16.15145354067985
 30
0.0
 11
94.74528136900537
 21
-17.49422146473984
 31
0.0
  0
LINE
  5
3D0
330
207
100
AcDbEntity
  8
0
  6
Continuous
 62
     7
100
AcDbLine
 10
116.5043023517654
 20
27.28760582944017
 30
0.0
 11
116.0043023586254
 21
27.28767499618016
 31
0.0
  0
LINE
  5
3D1
330
207
100
AcDbEntity
  8
0
  6
Continuous
 62
     7
100
AcDbLine
 10
114.5043023715854
 20
27.28788249640019
 30
0.0
 11
114.0043023759054
 21
27.28795166314018
 31
0.0
  0
LINE
  5
3D2
330
207
100
AcDbEntity
  8
0
  6
Continuous
 62
     7
100
AcDbLine
 10
112.5043023914054
 20
27.28815916336015
 30
0.0
 11
112.0043023957253
 21
27.2882283301002
 31
0.0
  0
LINE
  5
3D3
330
207
100
AcDbEntity
  8
0
  6
Continuous
 62
     7
100
AcDbLine
 10
110.5043024112254
 20
27.28843583032017
 30
0.0
 11
110.0043024155453
 21
27.28850499706016
 31
0.0
  0
LINE
  5
3D4
330
207
100
AcDbEntity
  8
0
  6
Continuous
 62
     7
100
AcDbLine
 10
108.5043024285054
 20
27.28871249728019
 30
0.0
 11
108.0043024328253
 21
27.28878166148019
 31
0.0
  0
LINE
  5
3D5
330
207
100
AcDbEntity
  8
0
  6
Continuous
 62
     7
100
AcDbLine
 10
106.5043024483253
 20
27.28898916170016
 30
0.0
 11
106.0043024526454
 21
27.28905832844015
 31
0.0
  0
LINE
  5
3D6
330
207
100
AcDbEntity
  8
0
  6
Continuous
 62
     7
100
AcDbLine
 10
104.5043024681454
 20
27.28926582866018
 30
0.0
 11
104.0043024724654
 21
27.28933499540017
 31
0.0
  0
LINE
  5
3D7
330
207
100
AcDbEntity
  8
0
  6
Continuous
 62
     7
100
AcDbLine
 10
102.5043024854254
 20
27.2895424956202
 30
0.0
 11
102.0043024922854
 21
27.28961166236019
 31
0.0
  0
LINE
  5
3D8
330
207
100
AcDbEntity
  8
0
  6
Continuous
 62
     7
100
AcDbLine
 10
99.30437168438539
 20
27.78998515742018
 30
0.0
 11
119.2043714931454
 21
27.78723232574018
 31
0.0
  0
LINE
  5
3D9
330
207
100
AcDbEntity
  8
0
  6
Continuous
 62
     7
100
AcDbLine
 10
94.74429162752537
 20
39.37513594694013
 30
0.0
 11
97.06953902426537
 21
38.03322516620017
 31
0.0
  0
LINE
  5
3DA
330
207
100
AcDbEntity
  8
0
  6
Continuous
 62
     7
100
AcDbLine
 10
126.2156836046054
 20
37.57896683926015
 30
0.0
 11
126.2543714926854
 21
37.18690464396013
 31
0.0
  0
LINE
  5
3DB
330
207
100
AcDbEntity
  8
0
  6
Continuous
 62
     7
100
AcDbLine
 10
126.2543714926854
 20
-15.31308268757985
 30
0.0
 11
126.2255055458454
 21
-15.70515733649981
 31
0.0
  0
LINE
  5
3DC
330
207
100
AcDbEntity
  8
0
  6
Continuous
 62
     7
100
AcDbLine
 10
117.7046066745453
 20
29.48743980924016
 30
0.0
 11
116.7546066822454
 21
29.48757122630016
 31
0.0
  0
LINE
  5
3DD
330
207
100
AcDbEntity
  8
0
  6
Continuous
 62
     7
100
AcDbLine
 10
101.7546068270854
 20
29.48964622342018
 30
0.0
 11
100.8046068347854
 21
29.48977764048018
 31
0.0
  0
LINE
  5
3DF
330
207
100
AcDbEntity
  8
0
  6
Continuous
 62
     7
100
AcDbLine
 10
117.7549801729854
 20
32.18743286746016
 30
0.0
 11
116.7549801816254
 21
32.18757120094017
 31
0.0
  0
LINE
  5
3E0
330
207
100
AcDbEntity
  8
0
  6
Continuous
 62
     7
100
AcDbLine
 10
101.7549803264654
 20
32.18964619806016
 30
0.0
 11
100.7549803351054
 21
32.18978453154014
 31
0.0
  0
LINE
  5
3E1
330
207
100
AcDbEntity
  8
0
  6
Continuous
 62
     7
100
AcDbLine
 10
119.2051094114054
 20
33.12158383126018
 30
0.0
 11
118.3394609750654
 21
33.12170357956018
 31
0.0
  0
LINE
  5
3E2
330
207
100
AcDbEntity
  8
0
  6
Continuous
 62
     7
100
AcDbLine
 10
99.30510960264539
 20
33.12433666040013
 30
0.0
 11
100.1707580364454
 21
33.12421691210017
 31
0.0
  0
LINE
  5
3E4
330
207
100
AcDbEntity
  8
0
  6
Continuous
 62
     7
100
AcDbLine
 10
126.2255055458454
 20
-15.70515733649981
 30
0.0
 11
126.1112140802454
 21
-16.08218045087983
 31
0.0
  0
LINE
  5
3E5
330
207
100
AcDbEntity
  8
0
  6
Continuous
 62
     7
100
AcDbLine
 10
118.3395807233654
 20
33.98735201590014
 30
0.0
 11
100.1708777847454
 21
33.98986534844016
 31
0.0
  0
LINE
  5
3E8
330
207
100
AcDbEntity
  8
0
  6
Continuous
 62
     7
100
AcDbLine
 10
126.1012531527454
 20
37.95594779218015
 30
0.0
 11
126.2156836046054
 21
37.57896683926015
 31
0.0
  0
LINE
  5
3EB
330
207
100
AcDbEntity
  8
0
  6
Continuous
 62
     7
100
AcDbLine
 10
126.1112140802454
 20
-16.08218045087983
 30
0.0
 11
125.9255634888854
 21
-16.42966127737981
 31
0.0
  0
LINE
  5
3EC
330
207
100
AcDbEntity
  8
0
  6
Continuous
 62
     7
100
AcDbLine
 10
121.4195388255654
 20
-13.47164363741985
 30
0.0
 11
123.7442913515654
 21
-12.1288757133598
 31
0.0
  0
LINE
  5
3ED
330
207
100
AcDbEntity
  8
0
  6
Continuous
 62
     7
100
AcDbLine
 10
124.2443243850254
 20
39.18653524210021
 30
0.0
 11
124.0641018981254
 21
39.18656017474018
 31
0.0
  0
LINE
  5
3EE
330
207
100
AcDbEntity
  8
0
  6
Continuous
 62
     7
100
AcDbLine
 10
123.4249060568854
 20
39.18664859468015
 30
0.0
 11
95.06410217408535
 21
39.19057183550018
 31
0.0
  0
LINE
  5
3EF
330
207
100
AcDbEntity
  8
0
  6
Continuous
 62
     7
100
AcDbLine
 10
94.42490633538537
 20
39.19066025798014
 30
0.0
 11
94.24432214994536
 21
39.19068523888018
 31
0.0
  0
LINE
  5
3F6
330
207
100
AcDbEntity
  8
0
  6
Continuous
 62
     7
100
AcDbLine
 10
123.7452810930454
 20
34.00176687404016
 30
0.0
 11
121.4200336963054
 21
35.34367765478015
 31
0.0
  0
LINE
  5
3F7
330
207
100
AcDbEntity
  8
0
  6
Continuous
 62
     7
100
AcDbLine
 10
125.9154744691854
 20
38.30336015298019
 30
0.0
 11
126.0587425545054
 21
38.03544403400014
 31
0.0
  0
LINE
  5
3F8
330
207
100
AcDbEntity
  8
0
  6
Continuous
 62
     7
100
AcDbLine
 10
126.0695413213254
 20
38.01524997990015
 30
0.0
 11
126.1012531527454
 21
37.95594779218015
 31
0.0
  0
LINE
  5
3F9
330
207
100
AcDbEntity
  8
0
  6
Continuous
 62
     7
100
AcDbLine
 10
125.9255634888854
 20
-16.42966127737981
 30
0.0
 11
125.6756887079654
 21
-16.73424572281982
 31
0.0
  0
LINE
  5
3FA
330
207
100
AcDbEntity
  8
0
  6
Continuous
 62
     7
100
AcDbLine
 10
125.6756887079654
 20
-16.73424572281982
 30
0.0
 11
125.3711964035654
 21
-16.9842327742798
 31
0.0
  0
LINE
  5
3FB
330
207
100
AcDbEntity
  8
0
  6
Continuous
 62
     7
100
AcDbLine
 10
126.0700336165054
 20
-16.15546520397984
 30
0.0
 11
123.7452810930454
 21
-17.49823312549981
 31
0.0
  0
LINE
  5
3FC
330
207
100
AcDbEntity
  8
0
  6
Continuous
 62
     7
100
AcDbLine
 10
125.3711964035654
 20
-16.9842327742798
 30
0.0
 11
125.0237840427654
 21
-17.17001145529983
 31
0.0
  0
LINE
  5
3FD
330
207
100
AcDbEntity
  8
0
  6
Continuous
 62
     7
100
AcDbLine
 10
125.0237840427654
 20
-17.17001145529983
 30
0.0
 11
124.6468030898454
 21
-17.28444190715985
 31
0.0
  0
LINE
  5
3FE
330
207
100
AcDbEntity
  8
0
  6
Continuous
 62
     7
100
AcDbLine
 10
93.8522599546454
 20
39.15199734826012
 30
0.0
 11
94.24432214994536
 21
39.19068523888018
 31
0.0
  0
LINE
  5
3FF
330
207
100
AcDbEntity
  8
0
  6
Continuous
 62
     7
100
AcDbLine
 10
124.2443243850254
 20
39.18653524210021
 30
0.0
 11
124.6363990314054
 21
39.15766929272013
 31
0.0
  0
LINE
  5
400
330
207
100
AcDbEntity
  8
0
  6
Continuous
 62
     7
100
AcDbLine
 10
124.6363990314054
 20
39.15766929272013
 30
0.0
 11
125.0134221457853
 21
39.04337782966019
 31
0.0
  0
LINE
  5
401
330
207
100
AcDbEntity
  8
0
  6
Continuous
 62
     7
100
AcDbLine
 10
125.0134221457853
 20
39.04337782966019
 30
0.0
 11
125.3609029722854
 21
38.85772723830019
 31
0.0
  0
LINE
  5
402
330
207
100
AcDbEntity
  8
0
  6
Continuous
 62
     7
100
AcDbLine
 10
123.7442913515654
 20
39.37112428618019
 30
0.0
 11
126.0695387457654
 21
38.02921350290018
 31
0.0
  0
LINE
  5
403
330
207
100
AcDbEntity
  8
0
  6
Continuous
 62
     7
100
AcDbLine
 10
125.3609029722854
 20
38.85772723830019
 30
0.0
 11
125.6654874177254
 21
38.60785245738015
 31
0.0
  0
LINE
  5
404
330
207
100
AcDbEntity
  8
0
  6
Continuous
 62
     7
100
AcDbLine
 10
125.6654874177254
 20
38.60785245738015
 30
0.0
 11
125.9154744691854
 21
38.30336015298019
 31
0.0
  0
ARC
  5
405
330
207
100
AcDbEntity
  8
0
  6
Continuous
 62
     7
100
AcDbCircle
 10
0.2426215481853831
 20
-14.81071501819986
 30
0.0
 40
16.83891719586
100
AcDbArc
 50
359.027277055
 51
0.9516001141000001
  0
ARC
  5
406
330
207
100
AcDbEntity
  8
0
  6
Continuous
 62
     7
100
AcDbCircle
 10
29.2426212696854
 20
-14.80670335743983
 30
0.0
 40
16.83891719586
100
AcDbArc
 50
359.027277055
 51
0.9516001141000001
  0
ARC
  5
407
330
207
100
AcDbEntity
  8
0
  6
Continuous
 62
     7
100
AcDbCircle
 10
15.6433868984854
 20
-30.19979052141983
 30
0.0
 40
16.82137081744
100
AcDbArc
 50
89.98882398929999
 51
90.95198915759998
  0
ARC
  5
408
330
207
100
AcDbEntity
  8
0
  6
Continuous
 62
     7
100
AcDbCircle
 10
15.64942010968537
 20
0.5726816800201959
 30
0.0
 40
16.82137081744
100
AcDbArc
 50
269.9888239893
 51
270.9519891576
  0
ARC
  5
409
330
207
100
AcDbEntity
  8
0
  6
Continuous
 62
     7
100
AcDbCircle
 10
15.64905923410538
 20
0.572681730820193
 30
0.0
 40
16.8213708022
100
AcDbArc
 50
269.026888011
 51
269.9900531802
  0
ARC
  5
40A
330
207
100
AcDbEntity
  8
0
  6
Continuous
 62
     7
100
AcDbCircle
 10
15.64374777406539
 20
-30.19979057221983
 30
0.0
 40
16.8213708022
100
AcDbArc
 50
89.026888011
 51
89.9900531802
  0
ARC
  5
40B
330
207
100
AcDbEntity
  8
0
  6
Continuous
 62
     7
100
AcDbCircle
 10
15.64640350408538
 20
-14.81355442069983
 30
0.0
 40
2.50000000126
100
AcDbArc
 50
81.807626302
 51
269.9894385845
  0
CIRCLE
  5
40C
330
207
100
AcDbEntity
  8
02___PRT_ALL_AXES
  6
Continuous
 62
     7
100
AcDbCircle
 10
15.64640350408538
 20
-14.81355442069983
 30
0.0
 40
2.50000000126
  0
CIRCLE
  5
40D
330
207
100
AcDbEntity
  8
02___PRT_ALL_AXES
  6
Continuous
 62
     7
100
AcDbCircle
 10
15.64640350408538
 20
-14.81355442069983
 30
0.0
 40
2.31132075454
  0
ARC
  5
40E
330
207
100
AcDbEntity
  8
0
  6
Continuous
 62
     7
100
AcDbCircle
 10
14.79656019996537
 20
-13.96339775423985
 30
0.0
 40
0.72775681474
100
AcDbArc
 50
269.9894385845
 51
359.9894385845
  0
ARC
  5
40F
330
207
100
AcDbEntity
  8
0
  6
Continuous
 62
     7
100
AcDbCircle
 10
16.49656017054539
 20
-13.96371111657982
 30
0.0
 40
0.72775681474
100
AcDbArc
 50
179.9894385845
 51
269.9894385845
  0
ARC
  5
410
330
207
100
AcDbEntity
  8
0
  6
Continuous
 62
     7
100
AcDbCircle
 10
16.49624680820537
 20
-15.66371108715984
 30
0.0
 40
0.72775681474
100
AcDbArc
 50
89.9894385845
 51
179.9894385845
  0
ARC
  5
411
330
207
100
AcDbEntity
  8
0
  6
Continuous
 62
     7
100
AcDbCircle
 10
14.79624683762538
 20
-15.66339772481984
 30
0.0
 40
0.72775681474
100
AcDbArc
 50
359.9894385845
 51
89.9894385845
  0
CIRCLE
  5
412
330
207
100
AcDbEntity
  8
0
  6
Continuous
 62
     7
100
AcDbCircle
 10
24.0189303429454
 20
-14.72010121415983
 30
0.0
 40
0.4445
  0
CIRCLE
  5
413
330
207
100
AcDbEntity
  8
0
  6
Continuous
 62
     7
100
AcDbCircle
 10
26.55893029976536
 20
-14.72056941489981
 30
0.0
 40
0.4445
  0
CIRCLE
  5
414
330
207
100
AcDbEntity
  8
0
  6
Continuous
 62
     7
100
AcDbCircle
 10
29.09893025658539
 20
-14.72103761817985
 30
0.0
 40
0.4445
  0
CIRCLE
  5
415
330
207
100
AcDbEntity
  8
0
  6
Continuous
 62
     7
100
AcDbCircle
 10
21.47893038612537
 20
-14.71963301087982
 30
0.0
 40
0.4445
  0
ARC
  5
416
330
207
100
AcDbEntity
  8
0
  6
Continuous
 62
     7
100
AcDbCircle
 10
29.2426212696854
 20
36.69329664464016
 30
0.0
 40
16.83891719586
100
AcDbArc
 50
359.027277055
 51
0.9516001141000001
  0
ARC
  5
417
330
207
100
AcDbEntity
  8
0
  6
Continuous
 62
     7
100
AcDbCircle
 10
0.2426215481853831
 20
36.68928498134017
 30
0.0
 40
16.83891719586
100
AcDbArc
 50
359.027277055
 51
0.9516001140000001
  0
ARC
  5
418
330
207
100
AcDbEntity
  8
0
  6
Continuous
 62
     7
100
AcDbCircle
 10
15.6433868984854
 20
21.30020948066016
 30
0.0
 40
16.82137081744
100
AcDbArc
 50
89.98882398929999
 51
90.95198915759998
  0
ARC
  5
419
330
207
100
AcDbEntity
  8
0
  6
Continuous
 62
     7
100
AcDbCircle
 10
15.64942010968537
 20
52.07268167956016
 30
0.0
 40
16.82137081744
100
AcDbArc
 50
269.9888239893
 51
270.9519891576
  0
ARC
  5
41A
330
207
100
AcDbEntity
  8
0
  6
Continuous
 62
     7
100
AcDbCircle
 10
15.64905923410538
 20
52.07268173036016
 30
0.0
 40
16.8213708022
100
AcDbArc
 50
269.026888011
 51
269.9900531802
  0
ARC
  5
41B
330
207
100
AcDbEntity
  8
0
  6
Continuous
 62
     7
100
AcDbCircle
 10
15.64374777406539
 20
21.30020942732017
 30
0.0
 40
16.8213708022
100
AcDbArc
 50
89.026888011
 51
89.9900531802
  0
ARC
  5
41C
330
207
100
AcDbEntity
  8
0
  6
Continuous
 62
     7
100
AcDbCircle
 10
15.64640350408538
 20
36.68644557884016
 30
0.0
 40
2.50000000126
100
AcDbArc
 50
89.9894385845
 51
278.1712508271
  0
CIRCLE
  5
41D
330
207
100
AcDbEntity
  8
02___PRT_ALL_AXES
  6
Continuous
 62
     7
100
AcDbCircle
 10
15.64640350408538
 20
36.68644557884016
 30
0.0
 40
2.50000000126
  0
CIRCLE
  5
41E
102
{ACAD_REACTORS
330
86C
102
}
330
207
100
AcDbEntity
  8
02___PRT_ALL_AXES
  6
Continuous
 62
     7
100
AcDbCircle
 10
15.64640350408538
 20
36.68644557884016
 30
0.0
 40
2.31132075454
  0
ARC
  5
41F
330
207
100
AcDbEntity
  8
0
  6
Continuous
 62
     7
100
AcDbCircle
 10
14.79656019996537
 20
37.53660224784016
 30
0.0
 40
0.72775681474
100
AcDbArc
 50
269.9894385845
 51
359.9894385845
  0
ARC
  5
420
330
207
100
AcDbEntity
  8
0
  6
Continuous
 62
     7
100
AcDbCircle
 10
16.49656017054539
 20
37.53628888296015
 30
0.0
 40
0.72775681474
100
AcDbArc
 50
179.9894385845
 51
269.9894385845
  0
ARC
  5
421
330
207
100
AcDbEntity
  8
0
  6
Continuous
 62
     7
100
AcDbCircle
 10
16.49624680820537
 20
35.83628891238021
 30
0.0
 40
0.72775681474
100
AcDbArc
 50
89.9894385845
 51
179.9894385845
  0
ARC
  5
422
330
207
100
AcDbEntity
  8
0
  6
Continuous
 62
     7
100
AcDbCircle
 10
14.79624683762538
 20
35.83660227472018
 30
0.0
 40
0.72775681474
100
AcDbArc
 50
359.9894385845
 51
89.9894385845
  0
ARC
  5
423
330
207
100
AcDbEntity
  8
0
  6
Continuous
 62
     7
100
AcDbCircle
 10
31.05018545998539
 20
-14.81639382319983
 30
0.0
 40
16.83891719586
100
AcDbArc
 50
179.027277055
 51
180.9516001141
  0
ARC
  5
424
330
207
100
AcDbEntity
  8
0
  6
Continuous
 62
     7
100
AcDbCircle
 10
60.05018518402539
 20
-14.81238215989981
 30
0.0
 40
16.83891719586
100
AcDbArc
 50
179.027277055
 51
180.951600114
  0
ARC
  5
425
330
207
100
AcDbEntity
  8
0
  6
Continuous
 62
     7
100
AcDbCircle
 10
44.64338661998539
 20
-30.19577885811984
 30
0.0
 40
16.82137081744
100
AcDbArc
 50
89.98882398929999
 51
90.95198915759998
  0
ARC
  5
426
330
207
100
AcDbEntity
  8
0
  6
Continuous
 62
     7
100
AcDbCircle
 10
44.64941983118536
 20
0.5766933407801673
 30
0.0
 40
16.82137081744
100
AcDbArc
 50
269.9888239893
 51
270.9519891576
  0
ARC
  5
427
330
207
100
AcDbEntity
  8
0
  6
Continuous
 62
     7
100
AcDbCircle
 10
44.64905895560537
 20
0.5766933941201557
 30
0.0
 40
16.8213708022
100
AcDbArc
 50
269.026888011
 51
269.9900531802
  0
ARC
  5
428
330
207
100
AcDbEntity
  8
0
  6
Continuous
 62
     7
100
AcDbCircle
 10
44.64374749810537
 20
-30.19577890891983
 30
0.0
 40
16.8213708022
100
AcDbArc
 50
89.026888011
 51
89.9900531802
  0
ARC
  5
429
330
207
100
AcDbEntity
  8
0
  6
Continuous
 62
     7
100
AcDbCircle
 10
44.64640322558537
 20
-14.80954275739981
 30
0.0
 40
2.50000000126
100
AcDbArc
 50
81.807626302
 51
269.9894385845
  0
CIRCLE
  5
42A
102
{ACAD_REACTORS
330
895
102
}
330
207
100
AcDbEntity
  8
02___PRT_ALL_AXES
  6
Continuous
 62
     7
100
AcDbCircle
 10
44.64640322558537
 20
-14.80954275739981
 30
0.0
 40
2.50000000126
  0
CIRCLE
  5
42B
330
207
100
AcDbEntity
  8
02___PRT_ALL_AXES
  6
Continuous
 62
     7
100
AcDbCircle
 10
44.64640322558537
 20
-14.80954275739981
 30
0.0
 40
2.31132075454
  0
ARC
  5
42C
330
207
100
AcDbEntity
  8
0
  6
Continuous
 62
     7
100
AcDbCircle
 10
43.79655992400538
 20
-13.95938609093983
 30
0.0
 40
0.72775681474
100
AcDbArc
 50
269.9894385845
 51
359.9894385845
  0
ARC
  5
42D
330
207
100
AcDbEntity
  8
0
  6
Continuous
 62
     7
100
AcDbCircle
 10
45.49655989458537
 20
-13.95969945581984
 30
0.0
 40
0.72775681474
100
AcDbArc
 50
179.9894385845
 51
269.9894385845
  0
ARC
  5
42E
330
207
100
AcDbEntity
  8
0
  6
Continuous
 62
     7
100
AcDbCircle
 10
45.49624652970539
 20
-15.65969942639981
 30
0.0
 40
0.72775681474
100
AcDbArc
 50
89.9894385845
 51
179.9894385845
  0
ARC
  5
42F
330
207
100
AcDbEntity
  8
0
  6
Continuous
 62
     7
100
AcDbCircle
 10
43.79624655912536
 20
-15.65938606151983
 30
0.0
 40
0.72775681474
100
AcDbArc
 50
359.9894385845
 51
89.9894385845
  0
CIRCLE
  5
430
330
207
100
AcDbEntity
  8
0
  6
Continuous
 62
     7
100
AcDbCircle
 10
31.63893021340536
 20
-14.72150581891984
 30
0.0
 40
0.4445
  0
CIRCLE
  5
431
330
207
100
AcDbEntity
  8
0
  6
Continuous
 62
     7
100
AcDbCircle
 10
34.17893017022539
 20
-14.72197402219984
 30
0.0
 40
0.4445
  0
CIRCLE
  5
432
330
207
100
AcDbEntity
  8
0
  6
Continuous
 62
     7
100
AcDbCircle
 10
39.25893008386538
 20
-14.72291042621981
 30
0.0
 40
0.4445
  0
CIRCLE
  5
433
330
207
100
AcDbEntity
  8
0
  6
Continuous
 62
     7
100
AcDbCircle
 10
36.71893012704538
 20
-14.72244222293983
 30
0.0
 40
0.4445
  0
ARC
  5
434
330
207
100
AcDbEntity
  8
0
  6
Continuous
 62
     7
100
AcDbCircle
 10
60.05018518402539
 20
36.68761783964015
 30
0.0
 40
16.83891719586
100
AcDbArc
 50
179.027277055
 51
180.951600114
  0
ARC
  5
435
330
207
100
AcDbEntity
  8
0
  6
Continuous
 62
     7
100
AcDbCircle
 10
31.05018545998539
 20
36.68360617888015
 30
0.0
 40
16.83891719586
100
AcDbArc
 50
179.027277055
 51
180.951600114
  0
ARC
  5
436
330
207
100
AcDbEntity
  8
0
  6
Continuous
 62
     7
100
AcDbCircle
 10
44.64338661998539
 20
21.30422114142016
 30
0.0
 40
16.82137081744
100
AcDbArc
 50
89.98882398929999
 51
90.95198915759998
  0
ARC
  5
437
330
207
100
AcDbEntity
  8
0
  6
Continuous
 62
     7
100
AcDbCircle
 10
44.64941983118536
 20
52.07669334286015
 30
0.0
 40
16.82137081744
100
AcDbArc
 50
269.9888239893
 51
270.9519891576
  0
ARC
  5
438
330
207
100
AcDbEntity
  8
0
  6
Continuous
 62
     7
100
AcDbCircle
 10
44.64905895560537
 20
52.07669339366015
 30
0.0
 40
16.8213708022
100
AcDbArc
 50
269.026888011
 51
269.9900531802
  0
ARC
  5
439
330
207
100
AcDbEntity
  8
0
  6
Continuous
 62
     7
100
AcDbCircle
 10
44.64374749810537
 20
21.30422109062019
 30
0.0
 40
16.8213708022
100
AcDbArc
 50
89.026888011
 51
89.9900531802
  0
ARC
  5
43A
330
207
100
AcDbEntity
  8
0
  6
Continuous
 62
     7
100
AcDbCircle
 10
44.64640322558537
 20
36.69045724214016
 30
0.0
 40
2.50000000126
100
AcDbArc
 50
269.9894385845
 51
81.807626302
  0
CIRCLE
  5
43B
330
207
100
AcDbEntity
  8
02___PRT_ALL_AXES
  6
Continuous
 62
     7
100
AcDbCircle
 10
44.64640322558537
 20
36.69045724214016
 30
0.0
 40
2.50000000126
  0
CIRCLE
  5
43C
102
{ACAD_REACTORS
330
86C
330
895
102
}
330
207
100
AcDbEntity
  8
02___PRT_ALL_AXES
  6
Continuous
 62
     7
100
AcDbCircle
 10
44.64640322558537
 20
36.69045724214016
 30
0.0
 40
2.31132075454
  0
ARC
  5
43D
330
207
100
AcDbEntity
  8
0
  6
Continuous
 62
     7
100
AcDbCircle
 10
43.79655992400538
 20
37.54061390860016
 30
0.0
 40
0.72775681474
100
AcDbArc
 50
269.9894385845
 51
359.9894385845
  0
ARC
  5
43E
330
207
100
AcDbEntity
  8
0
  6
Continuous
 62
     7
100
AcDbCircle
 10
45.49655989458537
 20
37.5403005462602
 30
0.0
 40
0.72775681474
100
AcDbArc
 50
179.9894385845
 51
269.9894385845
  0
ARC
  5
43F
330
207
100
AcDbEntity
  8
0
  6
Continuous
 62
     7
100
AcDbCircle
 10
45.49624652970539
 20
35.84030057314015
 30
0.0
 40
0.72775681474
100
AcDbArc
 50
89.9894385845
 51
179.9894385845
  0
ARC
  5
440
330
207
100
AcDbEntity
  8
0
  6
Continuous
 62
     7
100
AcDbCircle
 10
43.79624655912536
 20
35.84061393802017
 30
0.0
 40
0.72775681474
100
AcDbArc
 50
359.9894385845
 51
89.9894385845
  0
ARC
  5
441
330
207
100
AcDbEntity
  8
02___PRT_ALL_AXES
  6
Continuous
 62
     7
100
AcDbCircle
 10
70.98469171256298
 20
-16.91355438375984
 30
0.0
 40
0.4000000001
100
AcDbArc
 50
211.8907913652
 51
270.0
  0
ARC
  5
442
330
207
100
AcDbEntity
  8
02___PRT_ALL_AXES
  6
Continuous
 62
     7
100
AcDbCircle
 10
70.98469171256298
 20
-16.90954272299984
 30
0.0
 40
0.4000000001
100
AcDbArc
 50
211.8907913652
 51
270.0
  0
ARC
  5
443
330
207
100
AcDbEntity
  8
02___PRT_ALL_AXES
  6
Continuous
 62
     7
100
AcDbCircle
 10
70.98469171256298
 20
-12.70954279433982
 30
0.0
 40
0.4000000001
100
AcDbArc
 50
90.0
 51
148.1092086348
  0
ARC
  5
444
330
207
100
AcDbEntity
  8
0
  6
Continuous
 62
     7
100
AcDbCircle
 10
71.28469171200297
 20
-17.11355438253986
 30
0.0
 40
0.19999999878
100
AcDbArc
 50
270.0
 51
360.0
  0
ARC
  5
445
330
207
100
AcDbEntity
  8
0
  6
Continuous
 62
     7
100
AcDbCircle
 10
71.28469171200297
 20
-12.50954279809986
 30
0.0
 40
0.19999999878
100
AcDbArc
 50
0.0
 51
90.0
  0
ARC
  5
446
330
207
100
AcDbEntity
  8
0
  6
Continuous
 62
     7
100
AcDbCircle
 10
71.28469171200297
 20
-17.10954271923981
 30
0.0
 40
0.19999999878
100
AcDbArc
 50
270.0
 51
360.0
  0
ARC
  5
447
330
207
100
AcDbEntity
  8
0
  6
Continuous
 62
     7
100
AcDbCircle
 10
71.28919585590296
 20
-11.77854233985983
 30
0.0
 40
0.19549585742
100
AcDbArc
 50
270.0
 51
360.0
  0
ARC
  5
448
330
207
100
AcDbEntity
  8
0
  6
Continuous
 62
     7
100
AcDbCircle
 10
71.28919585590296
 20
-11.77854233985983
 30
0.0
 40
0.0454958577
100
AcDbArc
 50
270.0
 51
360.0
  0
ARC
  5
449
330
207
100
AcDbEntity
  8
0
  6
Continuous
 62
     7
100
AcDbCircle
 10
70.086132023783
 20
-14.46779229027985
 30
0.0
 40
0.0223125792
100
AcDbArc
 50
249.7743555529
 51
254.9370754492
  0
ARC
  5
44A
330
207
100
AcDbEntity
  8
02___PRT_ALL_AXES
  6
Continuous
 62
     7
100
AcDbCircle
 10
70.98469171256298
 20
34.58644561578015
 30
0.0
 40
0.4000000001
100
AcDbArc
 50
211.8907913652
 51
270.0
  0
ARC
  5
44B
330
207
100
AcDbEntity
  8
02___PRT_ALL_AXES
  6
Continuous
 62
     7
100
AcDbCircle
 10
70.98469171256298
 20
34.59045727654018
 30
0.0
 40
0.4000000001
100
AcDbArc
 50
211.8907913652
 51
270.0
  0
ARC
  5
44C
330
207
100
AcDbEntity
  8
02___PRT_ALL_AXES
  6
Continuous
 62
     7
100
AcDbCircle
 10
70.98469171256298
 20
38.79045720520014
 30
0.0
 40
0.4000000001
100
AcDbArc
 50
90.0
 51
148.1092086348
  0
ARC
  5
44D
330
207
100
AcDbEntity
  8
0
  6
Continuous
 62
     7
100
AcDbCircle
 10
71.28469171200297
 20
34.38644561954018
 30
0.0
 40
0.19999999878
100
AcDbArc
 50
270.0
 51
360.0
  0
ARC
  5
44E
330
207
100
AcDbEntity
  8
0
  6
Continuous
 62
     7
100
AcDbCircle
 10
71.28469171200297
 20
38.99045720144017
 30
0.0
 40
0.19999999878
100
AcDbArc
 50
0.0
 51
90.0
  0
ARC
  5
44F
330
207
100
AcDbEntity
  8
0
  6
Continuous
 62
     7
100
AcDbCircle
 10
71.28469171200297
 20
34.39045728030015
 30
0.0
 40
0.19999999878
100
AcDbArc
 50
270.0
 51
360.0
  0
ARC
  5
450
330
207
100
AcDbEntity
  8
0
  6
Continuous
 62
     7
100
AcDbCircle
 10
70.086132023783
 20
37.03220770926021
 30
0.0
 40
0.0223125792
100
AcDbArc
 50
249.7743555529
 51
254.9370754492
  0
ARC
  5
451
330
207
100
AcDbEntity
  8
0
  6
Continuous
 62
     7
100
AcDbCircle
 10
74.74803265170297
 20
-14.80980686151983
 30
0.0
 40
4.52125123688
100
AcDbArc
 50
176.4143606473
 51
183.5856393527
  0
ARC
  5
452
330
207
100
AcDbEntity
  8
0
  6
Continuous
 62
     7
100
AcDbCircle
 10
74.42348981844296
 20
-14.81827401247983
 30
0.0
 40
4.42465900944
100
AcDbArc
 50
191.0141871395
 51
198.7791323186
  0
ARC
  5
453
330
207
100
AcDbEntity
  8
0
  6
Continuous
 62
     7
100
AcDbCircle
 10
74.42340374546296
 20
-14.81428148045981
 30
0.0
 40
4.424570871439999
100
AcDbArc
 50
191.014156916
 51
198.829915142
  0
ARC
  5
454
330
207
100
AcDbEntity
  8
0
  6
Continuous
 62
     7
100
AcDbCircle
 10
74.359691711343
 20
-14.81355442069983
 30
0.0
 40
4.3750000003
100
AcDbArc
 50
160.8020871709
 51
160.8507082923
  0
ARC
  5
455
330
207
100
AcDbEntity
  8
0
  6
Continuous
 62
     7
100
AcDbCircle
 10
74.359691711343
 20
-14.81355442069983
 30
0.0
 40
4.3750000003
100
AcDbArc
 50
199.1492917077
 51
211.8907913652
  0
ARC
  5
456
330
207
100
AcDbEntity
  8
0
  6
Continuous
 62
     7
100
AcDbCircle
 10
74.359691711343
 20
-14.80954275739981
 30
0.0
 40
4.3750000003
100
AcDbArc
 50
148.1092086348
 51
160.8507082923
  0
ARC
  5
457
330
207
100
AcDbEntity
  8
0
  6
Continuous
 62
     7
100
AcDbCircle
 10
74.359691711343
 20
-14.80954275739981
 30
0.0
 40
4.3750000003
100
AcDbArc
 50
199.1492917077
 51
211.8907913652
  0
ARC
  5
458
330
207
100
AcDbEntity
  8
0
  6
Continuous
 62
     7
100
AcDbCircle
 10
74.74803265170297
 20
36.69019313802016
 30
0.0
 40
4.52125123688
100
AcDbArc
 50
176.4143606473
 51
183.5856393527
  0
ARC
  5
459
330
207
100
AcDbEntity
  8
0
  6
Continuous
 62
     7
100
AcDbCircle
 10
74.42348981844296
 20
36.68172598706013
 30
0.0
 40
4.42465900944
100
AcDbArc
 50
191.0141871395
 51
198.7791323186
  0
ARC
  5
45A
330
207
100
AcDbEntity
  8
0
  6
Continuous
 62
     7
100
AcDbCircle
 10
74.42340374546296
 20
36.68571851908018
 30
0.0
 40
4.424570871439999
100
AcDbArc
 50
191.014156916
 51
198.829915142
  0
ARC
  5
45B
330
207
100
AcDbEntity
  8
0
  6
Continuous
 62
     7
100
AcDbCircle
 10
74.359691711343
 20
36.68644557884016
 30
0.0
 40
4.3750000003
100
AcDbArc
 50
160.8020871709
 51
160.8507082923
  0
ARC
  5
45C
330
207
100
AcDbEntity
  8
0
  6
Continuous
 62
     7
100
AcDbCircle
 10
74.359691711343
 20
36.68644557884016
 30
0.0
 40
4.3750000003
100
AcDbArc
 50
199.1492917077
 51
211.8907913652
  0
ARC
  5
45D
330
207
100
AcDbEntity
  8
0
  6
Continuous
 62
     7
100
AcDbCircle
 10
74.359691711343
 20
36.69045724214016
 30
0.0
 40
4.3750000003
100
AcDbArc
 50
148.1092086348
 51
160.8507082923
  0
ARC
  5
45E
330
207
100
AcDbEntity
  8
0
  6
Continuous
 62
     7
100
AcDbCircle
 10
74.359691711343
 20
36.69045724214016
 30
0.0
 40
4.3750000003
100
AcDbArc
 50
199.1492917077
 51
211.8907913652
  0
ARC
  5
45F
330
207
100
AcDbEntity
  8
0
  6
Continuous
 62
     7
100
AcDbCircle
 10
76.13469171226299
 20
27.78961165804014
 30
0.0
 40
0.50000000076
100
AcDbArc
 50
293.9080014099
 51
333.5906369666
  0
CIRCLE
  5
472
330
207
100
AcDbEntity
  8
0
  6
Continuous
 62
     7
100
AcDbCircle
 10
107.7522595129853
 20
-14.72150581891984
 30
0.0
 40
0.4445
  0
CIRCLE
  5
473
330
207
100
AcDbEntity
  8
0
  6
Continuous
 62
     7
100
AcDbCircle
 10
105.2122595561654
 20
-14.72197402219984
 30
0.0
 40
0.4445
  0
CIRCLE
  5
474
102
{ACAD_REACTORS
330
8AB
102
}
330
207
100
AcDbEntity
  8
0
  6
Continuous
 62
     7
100
AcDbCircle
 10
100.1322596425254
 20
-14.72291042621981
 30
0.0
 40
0.4445
  0
CIRCLE
  5
475
102
{ACAD_REACTORS
330
8C1
102
}
330
207
100
AcDbEntity
  8
0
  6
Continuous
 62
     7
100
AcDbCircle
 10
102.6722595993454
 20
-14.72244222293983
 30
0.0
 40
0.4445
  0
CIRCLE
  5
49A
330
207
100
AcDbEntity
  8
0
  6
Continuous
 62
     7
100
AcDbCircle
 10
115.3722593834453
 20
-14.72010121415983
 30
0.0
 40
0.4445
  0
CIRCLE
  5
49B
330
207
100
AcDbEntity
  8
0
  6
Continuous
 62
     7
100
AcDbCircle
 10
112.8322594266254
 20
-14.72056941489981
 30
0.0
 40
0.4445
  0
CIRCLE
  5
49C
330
207
100
AcDbEntity
  8
0
  6
Continuous
 62
     7
100
AcDbCircle
 10
110.2922594698054
 20
-14.72103761817985
 30
0.0
 40
0.4445
  0
CIRCLE
  5
49D
102
{ACAD_REACTORS
330
8AB
330
8D7
102
}
330
207
100
AcDbEntity
  8
0
  6
Continuous
 62
     7
100
AcDbCircle
 10
117.9122593402654
 20
-14.71963301087982
 30
0.0
 40
0.4445
  0
SPLINE
  5
4B0
330
207
100
AcDbEntity
  8
0
  6
Continuous
 62
     7
100
AcDbSpline
210
0.0
220
0.0
230
1.0
 70
     8
 71
     3
 72
     9
 73
     5
 74
     0
 42
0.0000001
 43
0.0000001
 40
0.0
 40
0.0
 40
0.0
 40
0.0
 40
0.2464895909
 40
1.0
 40
1.0
 40
1.0
 40
1.0
 10
43.21369463558537
 20
36.97348207614016
 30
0.0
 10
43.26150125066539
 20
36.97784320534021
 30
0.0
 10
43.45554049936538
 20
36.99454578560017
 30
0.0
 10
43.64991082182539
 20
37.0073693159602
 30
0.0
 10
43.79646303316537
 20
37.01498679374021
 30
0.0
  0
SPLINE
  5
4B1
330
207
100
AcDbEntity
  8
0
  6
Continuous
 62
     7
100
AcDbSpline
210
0.0
220
0.0
230
1.0
 70
     8
 71
     3
 72
     9
 73
     5
 74
     0
 42
0.0000001
 43
0.0000001
 40
0.0
 40
0.0
 40
0.0
 40
0.0
 40
0.2532369785
 40
1.0
 40
1.0
 40
1.0
 40
1.0
 10
43.79634344996538
 20
36.36624105288018
 30
0.0
 10
43.74709170442537
 20
36.36881926210015
 30
0.0
 10
43.55265237524537
 20
36.37991602680017
 30
0.0
 10
43.3584199798654
 20
36.39469478312014
 30
0.0
 10
43.21359039144536
 20
36.40796061130015
 30
0.0
  0
SPLINE
  5
4B2
330
207
100
AcDbEntity
  8
0
  6
Continuous
 62
     7
100
AcDbSpline
210
0.0
220
0.0
230
1.0
 70
     8
 71
     3
 72
    11
 73
     7
 74
     0
 42
0.0000001
 43
0.0000001
 40
0.0
 40
0.0
 40
0.0
 40
0.0
 40
0.2488034595
 40
0.5000008188
 40
0.751196606
 40
1.0
 40
1.0
 40
1.0
 40
1.0
 10
44.32187367398538
 20
35.84051704718019
 30
0.0
 10
44.31838680008539
 20
35.90760082462015
 30
0.0
 10
44.28642151222539
 20
36.04239517784015
 30
0.0
 10
44.16913432998538
 20
36.2133646428602
 30
0.0
 10
43.99820803988536
 20
36.33071458088017
 30
0.0
 10
43.86342591930537
 20
36.36272944700016
 30
0.0
 10
43.79634344996538
 20
36.36624105288018
 30
0.0
  0
SPLINE
  5
4B3
330
207
100
AcDbEntity
  8
0
  6
Continuous
 62
     7
100
AcDbSpline
210
0.0
220
0.0
230
1.0
 70
     8
 71
     3
 72
     9
 73
     5
 74
     0
 42
0.0000001
 43
0.0000001
 40
0.0
 40
0.0
 40
0.0
 40
0.0
 40
0.2464864002
 40
1.0
 40
1.0
 40
1.0
 40
1.0
 10
44.36337839158537
 20
35.25774864960016
 30
0.0
 10
44.35901731826539
 20
35.30555464492016
 30
0.0
 10
44.34231472530539
 20
35.49959389362016
 30
0.0
 10
44.32949118478538
 20
35.69396421608013
 30
0.0
 10
44.32187367398538
 20
35.84051704718019
 30
0.0
  0
SPLINE
  5
4B4
330
207
100
AcDbEntity
  8
0
  6
Continuous
 62
     7
100
AcDbSpline
210
0.0
220
0.0
230
1.0
 70
     8
 71
     3
 72
     9
 73
     5
 74
     0
 42
0.0000001
 43
0.0000001
 40
0.0
 40
0.0
 40
0.0
 40
0.0
 40
0.2532402907
 40
1.0
 40
1.0
 40
1.0
 40
1.0
 10
44.32218703632537
 20
37.54051702030017
 30
0.0
 10
44.32476528110539
 20
37.58976940846014
 30
0.0
 10
44.33586205596538
 20
37.78420873764014
 30
0.0
 10
44.35064082752538
 20
37.97844113048018
 30
0.0
 10
44.36390659728539
 20
38.12327007628016
 30
0.0
  0
SPLINE
  5
4B5
330
207
100
AcDbEntity
  8
0
  6
Continuous
 62
     7
100
AcDbSpline
210
0.0
220
0.0
230
1.0
 70
     8
 71
     3
 72
    11
 73
     7
 74
     0
 42
0.0000001
 43
0.0000001
 40
0.0
 40
0.0
 40
0.0
 40
0.0
 40
0.2488009113
 40
0.4999967696
 40
0.7511960312
 40
1.0
 40
1.0
 40
1.0
 40
1.0
 10
43.79646303316537
 20
37.01498679374021
 30
0.0
 10
43.86354612480537
 20
37.01847363462014
 30
0.0
 10
43.99833938582537
 20
37.05043834844014
 30
0.0
 10
44.16930921406538
 20
37.16772461628017
 30
0.0
 10
44.28666024174538
 20
37.33865118324019
 30
0.0
 10
44.31867542536537
 20
37.47343439348015
 30
0.0
 10
44.32218703632537
 20
37.54051702030017
 30
0.0
  0
SPLINE
  5
4B6
330
207
100
AcDbEntity
  8
0
  6
Continuous
 62
     7
100
AcDbSpline
210
0.0
220
0.0
230
1.0
 70
     8
 71
     3
 72
     9
 73
     5
 74
     0
 42
0.0000001
 43
0.0000001
 40
0.0
 40
0.0
 40
0.0
 40
0.0
 40
0.2532402907
 40
1.0
 40
1.0
 40
1.0
 40
1.0
 10
44.97061941738539
 20
35.84039746398014
 30
0.0
 10
44.96804117260538
 20
35.79114507582017
 30
0.0
 10
44.95694439774536
 20
35.59670574664017
 30
0.0
 10
44.94216562618539
 20
35.40247335126014
 30
0.0
 10
44.92889985642537
 20
35.2576444080002
 30
0.0
  0
SPLINE
  5
4B7
330
207
100
AcDbEntity
  8
0
  6
Continuous
 62
     7
100
AcDbSpline
210
0.0
220
0.0
230
1.0
 70
     8
 71
     3
 72
    11
 73
     7
 74
     0
 42
0.0000001
 43
0.0000001
 40
0.0
 40
0.0
 40
0.0
 40
0.0
 40
0.2488009113
 40
0.4999967696
 40
0.7511960312
 40
1.0
 40
1.0
 40
1.0
 40
1.0
 10
45.49634342054537
 20
36.36592768800017
 30
0.0
 10
45.42926032890537
 20
36.36244084966017
 30
0.0
 10
45.29446706534537
 20
36.33047613584017
 30
0.0
 10
45.12349723964539
 20
36.21318986800014
 30
0.0
 10
45.00614621196539
 20
36.04226330104018
 30
0.0
 10
44.97413102834537
 20
35.90748008826017
 30
0.0
 10
44.97061941738539
 20
35.84039746398014
 30
0.0
  0
SPLINE
  5
4B8
330
207
100
AcDbEntity
  8
0
  6
Continuous
 62
     7
100
AcDbSpline
210
0.0
220
0.0
230
1.0
 70
     8
 71
     3
 72
     9
 73
     5
 74
     0
 42
0.0000001
 43
0.0000001
 40
0.0
 40
0.0
 40
0.0
 40
0.0
 40
0.2464895909
 40
1.0
 40
1.0
 40
1.0
 40
1.0
 10
46.07911181812537
 20
36.40743240560016
 30
0.0
 10
46.03130520304538
 20
36.40307127640017
 30
0.0
 10
45.83726595434538
 20
36.38636869614021
 30
0.0
 10
45.64289563188538
 20
36.37354516578017
 30
0.0
 10
45.49634342054537
 20
36.36592768800017
 30
0.0
  0
SPLINE
  5
4B9
330
207
100
AcDbEntity
  8
0
  6
Continuous
 62
     7
100
AcDbSpline
210
0.0
220
0.0
230
1.0
 70
     8
 71
     3
 72
     9
 73
     5
 74
     0
 42
0.0000001
 43
0.0000001
 40
0.0
 40
0.0
 40
0.0
 40
0.0
 40
0.2532369785
 40
1.0
 40
1.0
 40
1.0
 40
1.0
 10
45.49646300374539
 20
37.01467343140018
 30
0.0
 10
45.54571474928537
 20
37.01209522218016
 30
0.0
 10
45.74015407846537
 20
37.00099845748014
 30
0.0
 10
45.93438647384539
 20
36.98621970116017
 30
0.0
 10
46.07921606226537
 20
36.97295387044016
 30
0.0
  0
SPLINE
  5
4BA
330
207
100
AcDbEntity
  8
0
  6
Continuous
 62
     7
100
AcDbSpline
210
0.0
220
0.0
230
1.0
 70
     8
 71
     3
 72
    11
 73
     7
 74
     0
 42
0.0000001
 43
0.0000001
 40
0.0
 40
0.0
 40
0.0
 40
0.0
 40
0.2488034595
 40
0.5000008188
 40
0.751196606
 40
1.0
 40
1.0
 40
1.0
 40
1.0
 10
44.97093277972536
 20
37.54039743456019
 30
0.0
 10
44.97441965362538
 20
37.47331365712017
 30
0.0
 10
45.00638494148538
 20
37.33851930644016
 30
0.0
 10
45.12367212372536
 20
37.16754983888012
 30
0.0
 10
45.29459841128539
 20
37.05019990340014
 30
0.0
 10
45.42938053440537
 20
37.01818503474021
 30
0.0
 10
45.49646300374539
 20
37.01467343140018
 30
0.0
  0
SPLINE
  5
4BB
330
207
100
AcDbEntity
  8
0
  6
Continuous
 62
     7
100
AcDbSpline
210
0.0
220
0.0
230
1.0
 70
     8
 71
     3
 72
     9
 73
     5
 74
     0
 42
0.0000001
 43
0.0000001
 40
0.0
 40
0.0
 40
0.0
 40
0.0
 40
0.2464864002
 40
1.0
 40
1.0
 40
1.0
 40
1.0
 10
44.9294280621254
 20
38.12316583214016
 30
0.0
 10
44.93378913544538
 20
38.07535983682016
 30
0.0
 10
44.95049172840538
 20
37.88132058812016
 30
0.0
 10
44.96331526892536
 20
37.68695026820012
 30
0.0
 10
44.97093277972536
 20
37.54039743456019
 30
0.0
  0
SPLINE
  5
4BC
330
207
100
AcDbEntity
  8
0
  6
Continuous
 62
     7
100
AcDbSpline
210
0.0
220
0.0
230
1.0
 70
     8
 71
     3
 72
     9
 73
     5
 74
     0
 42
0.0000001
 43
0.0000001
 40
0.0
 40
0.0
 40
0.0
 40
0.0
 40
0.2464895909
 40
1.0
 40
1.0
 40
1.0
 40
1.0
 10
14.21369491408538
 20
-14.53052958415984
 30
0.0
 10
14.26150152662538
 20
-14.52616845495982
 30
0.0
 10
14.45554077786539
 20
-14.50946587723982
 30
0.0
 10
14.64991109778538
 20
-14.49664234433982
 30
0.0
 10
14.79646331166538
 20
-14.48902486655982
 30
0.0
  0
SPLINE
  5
4BD
330
207
100
AcDbEntity
  8
0
  6
Continuous
 62
     7
100
AcDbSpline
210
0.0
220
0.0
230
1.0
 70
     8
 71
     3
 72
     9
 73
     5
 74
     0
 42
0.0000001
 43
0.0000001
 40
0.0
 40
0.0
 40
0.0
 40
0.0
 40
0.2532369785
 40
1.0
 40
1.0
 40
1.0
 40
1.0
 10
14.79634372592537
 20
-15.13777060995983
 30
0.0
 10
14.74709198292538
 20
-15.13519240073984
 30
0.0
 10
14.55265265374538
 20
-15.12409563603981
 30
0.0
 10
14.35842025582537
 20
-15.10931687971984
 30
0.0
 10
14.21359066994538
 20
-15.09605104899984
 30
0.0
  0
SPLINE
  5
4BE
330
207
100
AcDbEntity
  8
0
  6
Continuous
 62
     7
100
AcDbSpline
210
0.0
220
0.0
230
1.0
 70
     8
 71
     3
 72
    11
 73
     7
 74
     0
 42
0.0000001
 43
0.0000001
 40
0.0
 40
0.0
 40
0.0
 40
0.0
 40
0.2488034595
 40
0.5000008188
 40
0.751196606
 40
1.0
 40
1.0
 40
1.0
 40
1.0
 10
15.3218739499454
 20
-15.66349461311984
 30
0.0
 10
15.31838707604538
 20
-15.59641083567985
 30
0.0
 10
15.28642178818538
 20
-15.46161648499981
 30
0.0
 10
15.16913460848536
 20
-15.29064701743982
 30
0.0
 10
14.99820831838537
 20
-15.17329708195982
 30
0.0
 10
14.86342619526539
 20
-15.14128221583982
 30
0.0
 10
14.79634372592537
 20
-15.13777060995983
 30
0.0
  0
SPLINE
  5
4BF
330
207
100
AcDbEntity
  8
0
  6
Continuous
 62
     7
100
AcDbSpline
210
0.0
220
0.0
230
1.0
 70
     8
 71
     3
 72
     9
 73
     5
 74
     0
 42
0.0000001
 43
0.0000001
 40
0.0
 40
0.0
 40
0.0
 40
0.0
 40
0.2464864002
 40
1.0
 40
1.0
 40
1.0
 40
1.0
 10
15.36337867008538
 20
-16.24626301069981
 30
0.0
 10
15.35901759676537
 20
-16.19845701537983
 30
0.0
 10
15.3423150038054
 20
-16.00441776667984
 30
0.0
 10
15.3294914607454
 20
-15.81004744675982
 30
0.0
 10
15.3218739499454
 20
-15.66349461311984
 30
0.0
  0
SPLINE
  5
4C0
330
207
100
AcDbEntity
  8
0
  6
Continuous
 62
     7
100
AcDbSpline
210
0.0
220
0.0
230
1.0
 70
     8
 71
     3
 72
     9
 73
     5
 74
     0
 42
0.0000001
 43
0.0000001
 40
0.0
 40
0.0
 40
0.0
 40
0.0
 40
0.2532402907
 40
1.0
 40
1.0
 40
1.0
 40
1.0
 10
15.32218731482538
 20
-13.96349464253984
 30
0.0
 10
15.32476555706538
 20
-13.91424225437981
 30
0.0
 10
15.33586233446539
 20
-13.71980292519984
 30
0.0
 10
15.35064110348537
 20
-13.52557052981982
 30
0.0
 10
15.36390687578537
 20
-13.38074158655982
 30
0.0
  0
SPLINE
  5
4C1
330
207
100
AcDbEntity
  8
0
  6
Continuous
 62
     7
100
AcDbSpline
210
0.0
220
0.0
230
1.0
 70
     8
 71
     3
 72
    11
 73
     7
 74
     0
 42
0.0000001
 43
0.0000001
 40
0.0
 40
0.0
 40
0.0
 40
0.0
 40
0.2488009113
 40
0.4999967696
 40
0.7511960312
 40
1.0
 40
1.0
 40
1.0
 40
1.0
 10
14.79646331166538
 20
-14.48902486655982
 30
0.0
 10
14.86354640076539
 20
-14.48553802821982
 30
0.0
 10
14.99833966432539
 20
-14.45357331439985
 30
0.0
 10
15.16930949002537
 20
-14.33628704655985
 30
0.0
 10
15.28666051770537
 20
-14.16536047959983
 30
0.0
 10
15.31867570132539
 20
-14.03057726681982
 30
0.0
 10
15.32218731482538
 20
-13.96349464253984
 30
0.0
  0
SPLINE
  5
4C2
330
207
100
AcDbEntity
  8
0
  6
Continuous
 62
     7
100
AcDbSpline
210
0.0
220
0.0
230
1.0
 70
     8
 71
     3
 72
     9
 73
     5
 74
     0
 42
0.0000001
 43
0.0000001
 40
0.0
 40
0.0
 40
0.0
 40
0.0
 40
0.2532402907
 40
1.0
 40
1.0
 40
1.0
 40
1.0
 10
15.97061969334538
 20
-15.66361419885985
 30
0.0
 10
15.96804145110536
 20
-15.71286658701982
 30
0.0
 10
15.95694467370538
 20
-15.90730591619982
 30
0.0
 10
15.9421659046854
 20
-16.10153831157982
 30
0.0
 10
15.92890013238537
 20
-16.24636725483984
 30
0.0
  0
SPLINE
  5
4C3
330
207
100
AcDbEntity
  8
0
  6
Continuous
 62
     7
100
AcDbSpline
210
0.0
220
0.0
230
1.0
 70
     8
 71
     3
 72
    11
 73
     7
 74
     0
 42
0.0000001
 43
0.0000001
 40
0.0
 40
0.0
 40
0.0
 40
0.0
 40
0.2488009113
 40
0.4999967696
 40
0.7511960312
 40
1.0
 40
1.0
 40
1.0
 40
1.0
 10
16.49634369650539
 20
-15.13808397229982
 30
0.0
 10
16.42926060740538
 20
-15.14157081317981
 30
0.0
 10
16.29446734384538
 20
-15.17353552699984
 30
0.0
 10
16.12349751814537
 20
-15.29082179483984
 30
0.0
 10
16.0061464904654
 20
-15.46174836179981
 30
0.0
 10
15.97413130684538
 20
-15.59653157203982
 30
0.0
 10
15.97061969334538
 20
-15.66361419885985
 30
0.0
  0
SPLINE
  5
4C4
330
207
100
AcDbEntity
  8
0
  6
Continuous
 62
     7
100
AcDbSpline
210
0.0
220
0.0
230
1.0
 70
     8
 71
     3
 72
     9
 73
     5
 74
     0
 42
0.0000001
 43
0.0000001
 40
0.0
 40
0.0
 40
0.0
 40
0.0
 40
0.2464895909
 40
1.0
 40
1.0
 40
1.0
 40
1.0
 10
17.07911209408539
 20
-15.09657925469983
 30
0.0
 10
17.03130548154539
 20
-15.10094038389985
 30
0.0
 10
16.83726623030537
 20
-15.11764296415981
 30
0.0
 10
16.64289591038539
 20
-15.13046649451982
 30
0.0
 10
16.49634369650539
 20
-15.13808397229982
 30
0.0
  0
SPLINE
  5
4C5
330
207
100
AcDbEntity
  8
0
  6
Continuous
 62
     7
100
AcDbSpline
210
0.0
220
0.0
230
1.0
 70
     8
 71
     3
 72
     9
 73
     5
 74
     0
 42
0.0000001
 43
0.0000001
 40
0.0
 40
0.0
 40
0.0
 40
0.0
 40
0.2532369785
 40
1.0
 40
1.0
 40
1.0
 40
1.0
 10
16.49646328224537
 20
-14.48933823143986
 30
0.0
 10
16.54571502524539
 20
-14.49191644065985
 30
0.0
 10
16.74015435442539
 20
-14.50301320535982
 30
0.0
 10
16.93438675234538
 20
-14.51779196167985
 30
0.0
 10
17.07921633822536
 20
-14.53105778985983
 30
0.0
  0
SPLINE
  5
4C6
330
207
100
AcDbEntity
  8
0
  6
Continuous
 62
     7
100
AcDbSpline
210
0.0
220
0.0
230
1.0
 70
     8
 71
     3
 72
    11
 73
     7
 74
     0
 42
0.0000001
 43
0.0000001
 40
0.0
 40
0.0
 40
0.0
 40
0.0
 40
0.2488034595
 40
0.5000008188
 40
0.751196606
 40
1.0
 40
1.0
 40
1.0
 40
1.0
 10
15.97093305822537
 20
-13.96361422573983
 30
0.0
 10
15.97441993212536
 20
-14.03069800571984
 30
0.0
 10
16.00638521998539
 20
-14.16549235639982
 30
0.0
 10
16.12367239968538
 20
-14.33646182141982
 30
0.0
 10
16.2945986897854
 20
-14.45381175943982
 30
0.0
 10
16.42938081290538
 20
-14.48582662555981
 30
0.0
 10
16.49646328224537
 20
-14.48933823143986
 30
0.0
  0
SPLINE
  5
4C7
330
207
100
AcDbEntity
  8
0
  6
Continuous
 62
     7
100
AcDbSpline
210
0.0
220
0.0
230
1.0
 70
     8
 71
     3
 72
     9
 73
     5
 74
     0
 42
0.0000001
 43
0.0000001
 40
0.0
 40
0.0
 40
0.0
 40
0.0
 40
0.2464864002
 40
1.0
 40
1.0
 40
1.0
 40
1.0
 10
15.92942834062538
 20
-13.38084582815981
 30
0.0
 10
15.93378941140537
 20
-13.42865182347981
 30
0.0
 10
15.95049200436537
 20
-13.62269107217983
 30
0.0
 10
15.96331554742537
 20
-13.81706139463981
 30
0.0
 10
15.97093305822537
 20
-13.96361422573983
 30
0.0
  0
SPLINE
  5
4C8
330
207
100
AcDbEntity
  8
0
  6
Continuous
 62
     7
100
AcDbSpline
210
0.0
220
0.0
230
1.0
 70
     8
 71
     3
 72
     9
 73
     5
 74
     0
 42
0.0000001
 43
0.0000001
 40
0.0
 40
0.0
 40
0.0
 40
0.0
 40
0.2464895909
 40
1.0
 40
1.0
 40
1.0
 40
1.0
 10
43.21369463558537
 20
-14.52651792339981
 30
0.0
 10
43.26150125066539
 20
-14.52215679419984
 30
0.0
 10
43.45554049936538
 20
-14.50545421393983
 30
0.0
 10
43.64991082182539
 20
-14.49263068357985
 30
0.0
 10
43.79646303316537
 20
-14.48501320579985
 30
0.0
  0
SPLINE
  5
4C9
330
207
100
AcDbEntity
  8
0
  6
Continuous
 62
     7
100
AcDbSpline
210
0.0
220
0.0
230
1.0
 70
     8
 71
     3
 72
     9
 73
     5
 74
     0
 42
0.0000001
 43
0.0000001
 40
0.0
 40
0.0
 40
0.0
 40
0.0
 40
0.2532369785
 40
1.0
 40
1.0
 40
1.0
 40
1.0
 10
43.79634344996538
 20
-15.13375894665984
 30
0.0
 10
43.74709170442537
 20
-15.13118073743985
 30
0.0
 10
43.55265237524537
 20
-15.12008397273985
 30
0.0
 10
43.3584199798654
 20
-15.10530521641982
 30
0.0
 10
43.21359039144536
 20
-15.09203938823981
 30
0.0
  0
SPLINE
  5
4CA
330
207
100
AcDbEntity
  8
0
  6
Continuous
 62
     7
100
AcDbSpline
210
0.0
220
0.0
230
1.0
 70
     8
 71
     3
 72
    11
 73
     7
 74
     0
 42
0.0000001
 43
0.0000001
 40
0.0
 40
0.0
 40
0.0
 40
0.0
 40
0.2488034595
 40
0.5000008188
 40
0.751196606
 40
1.0
 40
1.0
 40
1.0
 40
1.0
 10
44.32187367398538
 20
-15.65948295235981
 30
0.0
 10
44.31838680008539
 20
-15.59239917491982
 30
0.0
 10
44.28642151222539
 20
-15.45760482169985
 30
0.0
 10
44.16913432998538
 20
-15.28663535667985
 30
0.0
 10
43.99820803988536
 20
-15.16928541865983
 30
0.0
 10
43.86342591930537
 20
-15.13727055253983
 30
0.0
 10
43.79634344996538
 20
-15.13375894665984
 30
0.0
  0
SPLINE
  5
4CB
330
207
100
AcDbEntity
  8
0
  6
Continuous
 62
     7
100
AcDbSpline
210
0.0
220
0.0
230
1.0
 70
     8
 71
     3
 72
     9
 73
     5
 74
     0
 42
0.0000001
 43
0.0000001
 40
0.0
 40
0.0
 40
0.0
 40
0.0
 40
0.2464864002
 40
1.0
 40
1.0
 40
1.0
 40
1.0
 10
44.36337839158537
 20
-16.24225134993983
 30
0.0
 10
44.35901731826539
 20
-16.19444535461983
 30
0.0
 10
44.34231472530539
 20
-16.00040610591981
 30
0.0
 10
44.32949118478538
 20
-15.80603578599982
 30
0.0
 10
44.32187367398538
 20
-15.65948295235981
 30
0.0
  0
SPLINE
  5
4CC
330
207
100
AcDbEntity
  8
0
  6
Continuous
 62
     7
100
AcDbSpline
210
0.0
220
0.0
230
1.0
 70
     8
 71
     3
 72
     9
 73
     5
 74
     0
 42
0.0000001
 43
0.0000001
 40
0.0
 40
0.0
 40
0.0
 40
0.0
 40
0.2532402907
 40
1.0
 40
1.0
 40
1.0
 40
1.0
 10
44.32218703632537
 20
-13.95948298177984
 30
0.0
 10
44.32476528110539
 20
-13.91023059107982
 30
0.0
 10
44.33586205596538
 20
-13.71579126443982
 30
0.0
 10
44.35064082752538
 20
-13.52155886905985
 30
0.0
 10
44.36390659728539
 20
-13.37672992325983
 30
0.0
  0
SPLINE
  5
4CD
330
207
100
AcDbEntity
  8
0
  6
Continuous
 62
     7
100
AcDbSpline
210
0.0
220
0.0
230
1.0
 70
     8
 71
     3
 72
    11
 73
     7
 74
     0
 42
0.0000001
 43
0.0000001
 40
0.0
 40
0.0
 40
0.0
 40
0.0
 40
0.2488009113
 40
0.4999967696
 40
0.7511960312
 40
1.0
 40
1.0
 40
1.0
 40
1.0
 10
43.79646303316537
 20
-14.48501320579985
 30
0.0
 10
43.86354612480537
 20
-14.48152636745982
 30
0.0
 10
43.99833938582537
 20
-14.44956165109983
 30
0.0
 10
44.16930921406538
 20
-14.3322753832598
 30
0.0
 10
44.28666024174538
 20
-14.16134881629984
 30
0.0
 10
44.31867542536537
 20
-14.02656560605982
 30
0.0
 10
44.32218703632537
 20
-13.95948298177984
 30
0.0
  0
SPLINE
  5
4CE
330
207
100
AcDbEntity
  8
0
  6
Continuous
 62
     7
100
AcDbSpline
210
0.0
220
0.0
230
1.0
 70
     8
 71
     3
 72
     9
 73
     5
 74
     0
 42
0.0000001
 43
0.0000001
 40
0.0
 40
0.0
 40
0.0
 40
0.0
 40
0.2532402907
 40
1.0
 40
1.0
 40
1.0
 40
1.0
 10
44.97061941738539
 20
-15.65960253555983
 30
0.0
 10
44.96804117260538
 20
-15.70885492371983
 30
0.0
 10
44.95694439774536
 20
-15.90329425289985
 30
0.0
 10
44.94216562618539
 20
-16.09752664827982
 30
0.0
 10
44.92889985642537
 20
-16.24235559407984
 30
0.0
  0
SPLINE
  5
4CF
330
207
100
AcDbEntity
  8
0
  6
Continuous
 62
     7
100
AcDbSpline
210
0.0
220
0.0
230
1.0
 70
     8
 71
     3
 72
    11
 73
     7
 74
     0
 42
0.0000001
 43
0.0000001
 40
0.0
 40
0.0
 40
0.0
 40
0.0
 40
0.2488009113
 40
0.4999967696
 40
0.7511960312
 40
1.0
 40
1.0
 40
1.0
 40
1.0
 10
45.49634342054537
 20
-15.13407231153982
 30
0.0
 10
45.42926032890537
 20
-15.13755914987985
 30
0.0
 10
45.29446706534537
 20
-15.16952386369985
 30
0.0
 10
45.12349723964539
 20
-15.28681013153982
 30
0.0
 10
45.00614621196539
 20
-15.45773670103983
 30
0.0
 10
44.97413102834537
 20
-15.59251991127985
 30
0.0
 10
44.97061941738539
 20
-15.65960253555983
 30
0.0
  0
SPLINE
  5
4D0
330
207
100
AcDbEntity
  8
0
  6
Continuous
 62
     7
100
AcDbSpline
210
0.0
220
0.0
230
1.0
 70
     8
 71
     3
 72
     9
 73
     5
 74
     0
 42
0.0000001
 43
0.0000001
 40
0.0
 40
0.0
 40
0.0
 40
0.0
 40
0.2464895909
 40
1.0
 40
1.0
 40
1.0
 40
1.0
 10
46.07911181812537
 20
-15.09256759393986
 30
0.0
 10
46.03130520304538
 20
-15.09692872313983
 30
0.0
 10
45.83726595434538
 20
-15.11363130339984
 30
0.0
 10
45.64289563188538
 20
-15.12645483375982
 30
0.0
 10
45.49634342054537
 20
-15.13407231153982
 30
0.0
  0
SPLINE
  5
4D1
330
207
100
AcDbEntity
  8
0
  6
Continuous
 62
     7
100
AcDbSpline
210
0.0
220
0.0
230
1.0
 70
     8
 71
     3
 72
     9
 73
     5
 74
     0
 42
0.0000001
 43
0.0000001
 40
0.0
 40
0.0
 40
0.0
 40
0.0
 40
0.2532369785
 40
1.0
 40
1.0
 40
1.0
 40
1.0
 10
45.49646300374539
 20
-14.48532656813981
 30
0.0
 10
45.54571474928537
 20
-14.48790477735983
 30
0.0
 10
45.74015407846537
 20
-14.49900154205983
 30
0.0
 10
45.93438647384539
 20
-14.51378029837986
 30
0.0
 10
46.07921606226537
 20
-14.52704612909986
 30
0.0
  0
SPLINE
  5
4D2
330
207
100
AcDbEntity
  8
0
  6
Continuous
 62
     7
100
AcDbSpline
210
0.0
220
0.0
230
1.0
 70
     8
 71
     3
 72
    11
 73
     7
 74
     0
 42
0.0000001
 43
0.0000001
 40
0.0
 40
0.0
 40
0.0
 40
0.0
 40
0.2488034595
 40
0.5000008188
 40
0.751196606
 40
1.0
 40
1.0
 40
1.0
 40
1.0
 10
44.97093277972536
 20
-13.9596025649798
 30
0.0
 10
44.97441965362538
 20
-14.02668634241985
 30
0.0
 10
45.00638494148538
 20
-14.16148069309983
 30
0.0
 10
45.12367212372536
 20
-14.33245016065985
 30
0.0
 10
45.29459841128539
 20
-14.44980009867984
 30
0.0
 10
45.42938053440537
 20
-14.48181496479984
 30
0.0
 10
45.49646300374539
 20
-14.48532656813981
 30
0.0
  0
SPLINE
  5
4D3
330
207
100
AcDbEntity
  8
0
  6
Continuous
 62
     7
100
AcDbSpline
210
0.0
220
0.0
230
1.0
 70
     8
 71
     3
 72
     9
 73
     5
 74
     0
 42
0.0000001
 43
0.0000001
 40
0.0
 40
0.0
 40
0.0
 40
0.0
 40
0.2464864002
 40
1.0
 40
1.0
 40
1.0
 40
1.0
 10
44.9294280621254
 20
-13.37683416739983
 30
0.0
 10
44.93378913544538
 20
-13.42464016271984
 30
0.0
 10
44.95049172840538
 20
-13.61867941141981
 30
0.0
 10
44.96331526892536
 20
-13.81304973133985
 30
0.0
 10
44.97093277972536
 20
-13.9596025649798
 30
0.0
  0
SPLINE
  5
4D4
330
207
100
AcDbEntity
  8
0
  6
Continuous
 62
     7
100
AcDbSpline
210
0.0
220
0.0
230
1.0
 70
     8
 71
     3
 72
     9
 73
     5
 74
     0
 42
0.0000001
 43
0.0000001
 40
0.0
 40
0.0
 40
0.0
 40
0.0
 40
0.2464895909
 40
1.0
 40
1.0
 40
1.0
 40
1.0
 10
14.21369491408538
 20
36.96947041538016
 30
0.0
 10
14.26150152662538
 20
36.97383154458015
 30
0.0
 10
14.45554077786539
 20
36.99053412484017
 30
0.0
 10
14.64991109778538
 20
37.00335765520015
 30
0.0
 10
14.79646331166538
 20
37.01097513298015
 30
0.0
  0
SPLINE
  5
4D5
330
207
100
AcDbEntity
  8
0
  6
Continuous
 62
     7
100
AcDbSpline
210
0.0
220
0.0
230
1.0
 70
     8
 71
     3
 72
     9
 73
     5
 74
     0
 42
0.0000001
 43
0.0000001
 40
0.0
 40
0.0
 40
0.0
 40
0.0
 40
0.2532369785
 40
1.0
 40
1.0
 40
1.0
 40
1.0
 10
14.79634372592537
 20
36.36222938958014
 30
0.0
 10
14.74709198292538
 20
36.36480759880016
 30
0.0
 10
14.55265265374538
 20
36.37590436350018
 30
0.0
 10
14.35842025582537
 20
36.39068311982015
 30
0.0
 10
14.21359066994538
 20
36.40394895054015
 30
0.0
  0
SPLINE
  5
4D6
330
207
100
AcDbEntity
  8
0
  6
Continuous
 62
     7
100
AcDbSpline
210
0.0
220
0.0
230
1.0
 70
     8
 71
     3
 72
    11
 73
     7
 74
     0
 42
0.0000001
 43
0.0000001
 40
0.0
 40
0.0
 40
0.0
 40
0.0
 40
0.2488034595
 40
0.5000008188
 40
0.751196606
 40
1.0
 40
1.0
 40
1.0
 40
1.0
 10
15.3218739499454
 20
35.83650538642019
 30
0.0
 10
15.31838707604538
 20
35.90358916386015
 30
0.0
 10
15.28642178818538
 20
36.03838351454016
 30
0.0
 10
15.16913460848536
 20
36.20935298210014
 30
0.0
 10
14.99820831838537
 20
36.32670291758018
 30
0.0
 10
14.86342619526539
 20
36.35871778624016
 30
0.0
 10
14.79634372592537
 20
36.36222938958014
 30
0.0
  0
SPLINE
  5
4D7
330
207
100
AcDbEntity
  8
0
  6
Continuous
 62
     7
100
AcDbSpline
210
0.0
220
0.0
230
1.0
 70
     8
 71
     3
 72
     9
 73
     5
 74
     0
 42
0.0000001
 43
0.0000001
 40
0.0
 40
0.0
 40
0.0
 40
0.0
 40
0.2464864002
 40
1.0
 40
1.0
 40
1.0
 40
1.0
 10
15.36337867008538
 20
35.25373698884016
 30
0.0
 10
15.35901759676537
 20
35.30154298416016
 30
0.0
 10
15.3423150038054
 20
35.49558223286016
 30
0.0
 10
15.3294914607454
 20
35.68995255278014
 30
0.0
 10
15.3218739499454
 20
35.83650538642019
 30
0.0
  0
SPLINE
  5
4D8
330
207
100
AcDbEntity
  8
0
  6
Continuous
 62
     7
100
AcDbSpline
210
0.0
220
0.0
230
1.0
 70
     8
 71
     3
 72
     9
 73
     5
 74
     0
 42
0.0000001
 43
0.0000001
 40
0.0
 40
0.0
 40
0.0
 40
0.0
 40
0.2532402907
 40
1.0
 40
1.0
 40
1.0
 40
1.0
 10
15.32218731482538
 20
37.53650535700012
 30
0.0
 10
15.32476555706538
 20
37.58575774516015
 30
0.0
 10
15.33586233446539
 20
37.78019707434015
 30
0.0
 10
15.35064110348537
 20
37.97442946972018
 30
0.0
 10
15.36390687578537
 20
38.11925841298017
 30
0.0
  0
SPLINE
  5
4D9
330
207
100
AcDbEntity
  8
0
  6
Continuous
 62
     7
100
AcDbSpline
210
0.0
220
0.0
230
1.0
 70
     8
 71
     3
 72
    11
 73
     7
 74
     0
 42
0.0000001
 43
0.0000001
 40
0.0
 40
0.0
 40
0.0
 40
0.0
 40
0.2488009113
 40
0.4999967696
 40
0.7511960312
 40
1.0
 40
1.0
 40
1.0
 40
1.0
 10
14.79646331166538
 20
37.01097513298015
 30
0.0
 10
14.86354640076539
 20
37.01446197132015
 30
0.0
 10
14.99833966432539
 20
37.04642668514015
 30
0.0
 10
15.16930949002537
 20
37.16371295298018
 30
0.0
 10
15.28666051770537
 20
37.33463952248013
 30
0.0
 10
15.31867570132539
 20
37.46942273272015
 30
0.0
 10
15.32218731482538
 20
37.53650535700012
 30
0.0
  0
SPLINE
  5
4DA
330
207
100
AcDbEntity
  8
0
  6
Continuous
 62
     7
100
AcDbSpline
210
0.0
220
0.0
230
1.0
 70
     8
 71
     3
 72
     9
 73
     5
 74
     0
 42
0.0000001
 43
0.0000001
 40
0.0
 40
0.0
 40
0.0
 40
0.0
 40
0.2532402907
 40
1.0
 40
1.0
 40
1.0
 40
1.0
 10
15.97061969334538
 20
35.8363858032202
 30
0.0
 10
15.96804145110536
 20
35.78713341252018
 30
0.0
 10
15.95694467370538
 20
35.59269408334018
 30
0.0
 10
15.9421659046854
 20
35.39846169050014
 30
0.0
 10
15.92890013238537
 20
35.25363274470016
 30
0.0
  0
SPLINE
  5
4DB
330
207
100
AcDbEntity
  8
0
  6
Continuous
 62
     7
100
AcDbSpline
210
0.0
220
0.0
230
1.0
 70
     8
 71
     3
 72
    11
 73
     7
 74
     0
 42
0.0000001
 43
0.0000001
 40
0.0
 40
0.0
 40
0.0
 40
0.0
 40
0.2488009113
 40
0.4999967696
 40
0.7511960312
 40
1.0
 40
1.0
 40
1.0
 40
1.0
 10
16.49634369650539
 20
36.36191602724017
 30
0.0
 10
16.42926060740538
 20
36.35842918890017
 30
0.0
 10
16.29446734384538
 20
36.32646447254012
 30
0.0
 10
16.12349751814537
 20
36.20917820470021
 30
0.0
 10
16.0061464904654
 20
36.03825163774019
 30
0.0
 10
15.97413130684538
 20
35.90346842750017
 30
0.0
 10
15.97061969334538
 20
35.8363858032202
 30
0.0
  0
SPLINE
  5
4DC
330
207
100
AcDbEntity
  8
0
  6
Continuous
 62
     7
100
AcDbSpline
210
0.0
220
0.0
230
1.0
 70
     8
 71
     3
 72
     9
 73
     5
 74
     0
 42
0.0000001
 43
0.0000001
 40
0.0
 40
0.0
 40
0.0
 40
0.0
 40
0.2464895909
 40
1.0
 40
1.0
 40
1.0
 40
1.0
 10
17.07911209408539
 20
36.40342074484016
 30
0.0
 10
17.03130548154539
 20
36.39905961564017
 30
0.0
 10
16.83726623030537
 20
36.38235703538015
 30
0.0
 10
16.64289591038539
 20
36.36953350502017
 30
0.0
 10
16.49634369650539
 20
36.36191602724017
 30
0.0
  0
SPLINE
  5
4DD
330
207
100
AcDbEntity
  8
0
  6
Continuous
 62
     7
100
AcDbSpline
210
0.0
220
0.0
230
1.0
 70
     8
 71
     3
 72
     9
 73
     5
 74
     0
 42
0.0000001
 43
0.0000001
 40
0.0
 40
0.0
 40
0.0
 40
0.0
 40
0.2532369785
 40
1.0
 40
1.0
 40
1.0
 40
1.0
 10
16.49646328224537
 20
37.01066176810019
 30
0.0
 10
16.54571502524539
 20
37.00808355888017
 30
0.0
 10
16.74015435442539
 20
36.99698679418015
 30
0.0
 10
16.93438675234538
 20
36.98220803786012
 30
0.0
 10
17.07921633822536
 20
36.96894220968016
 30
0.0
  0
SPLINE
  5
4DE
330
207
100
AcDbEntity
  8
0
  6
Continuous
 62
     7
100
AcDbSpline
210
0.0
220
0.0
230
1.0
 70
     8
 71
     3
 72
    11
 73
     7
 74
     0
 42
0.0000001
 43
0.0000001
 40
0.0
 40
0.0
 40
0.0
 40
0.0
 40
0.2488034595
 40
0.5000008188
 40
0.751196606
 40
1.0
 40
1.0
 40
1.0
 40
1.0
 10
15.97093305822537
 20
37.53638577380019
 30
0.0
 10
15.97441993212536
 20
37.46930199636017
 30
0.0
 10
16.00638521998539
 20
37.33450764314017
 30
0.0
 10
16.12367239968538
 20
37.16353817812018
 30
0.0
 10
16.2945986897854
 20
37.04618824010015
 30
0.0
 10
16.42938081290538
 20
37.01417337398016
 30
0.0
 10
16.49646328224537
 20
37.01066176810019
 30
0.0
  0
SPLINE
  5
4DF
330
207
100
AcDbEntity
  8
0
  6
Continuous
 62
     7
100
AcDbSpline
210
0.0
220
0.0
230
1.0
 70
     8
 71
     3
 72
     9
 73
     5
 74
     0
 42
0.0000001
 43
0.0000001
 40
0.0
 40
0.0
 40
0.0
 40
0.0
 40
0.2464864002
 40
1.0
 40
1.0
 40
1.0
 40
1.0
 10
15.92942834062538
 20
38.11915417138016
 30
0.0
 10
15.93378941140537
 20
38.07134817606016
 30
0.0
 10
15.95049200436537
 20
37.87730892736016
 30
0.0
 10
15.96331554742537
 20
37.68293860490019
 30
0.0
 10
15.97093305822537
 20
37.53638577380019
 30
0.0
  0
SPLINE
  5
4E0
330
207
100
AcDbEntity
  8
0
  6
Continuous
 62
     7
100
AcDbSpline
210
0.0
220
0.0
230
1.0
 70
     8
 71
     3
 72
     9
 73
     5
 74
     0
 42
0.0000001
 43
0.0000001
 40
0.0
 40
0.0
 40
0.0
 40
0.0
 40
0.3053881779
 40
1.0
 40
1.0
 40
1.0
 40
1.0
 10
70.05760604578299
 20
37.03459229936016
 30
0.0
 10
70.05894848912297
 20
37.03166338980014
 30
0.0
 10
70.06373665074295
 20
37.02239024096019
 30
0.0
 10
70.07154131890297
 20
37.01380331884019
 30
0.0
 10
70.07841816062296
 20
37.01127096170018
 30
0.0
  0
SPLINE
  5
4E1
330
207
100
AcDbEntity
  8
0
  6
Continuous
 62
     7
100
AcDbSpline
210
0.0
220
0.0
230
1.0
 70
     8
 71
     3
 72
     9
 73
     5
 74
     0
 42
0.0000001
 43
0.0000001
 40
0.0
 40
0.0
 40
0.0
 40
0.0
 40
0.3053881779
 40
1.0
 40
1.0
 40
1.0
 40
1.0
 10
70.05760604578299
 20
-14.46540770271986
 30
0.0
 10
70.05894848912297
 20
-14.46833660973982
 30
0.0
 10
70.06373665074295
 20
-14.4776097585798
 30
0.0
 10
70.07154131890297
 20
-14.48619668069986
 30
0.0
 10
70.07841816062296
 20
-14.48872903783985
 30
0.0
  0
SPLINE
  5
4E2
330
207
100
AcDbEntity
  8
0
  6
Continuous
 62
     7
100
AcDbSpline
210
0.0
220
0.0
230
1.0
 70
     8
 71
     3
 72
    18
 73
    14
 74
     0
 42
0.0000001
 43
0.0000001
 40
0.0
 40
0.0
 40
0.0
 40
0.0
 40
0.0194097815
 40
0.0425911137
 40
0.0715904756
 40
0.1073896456
 40
0.15036197
 40
0.2005364781
 40
0.3215485487
 40
0.467262747
 40
0.6328281835
 40
0.8124699687
 40
1.0
 40
1.0
 40
1.0
 40
1.0
 10
70.08033343746297
 20
36.36592768800017
 30
0.0
 10
70.07695542796299
 20
36.36502575178014
 30
0.0
 10
70.070013585103
 20
36.36114651646017
 30
0.0
 10
70.06177544054299
 20
36.35099365894018
 30
0.0
 10
70.054840699523
 20
36.33664888194016
 30
0.0
 10
70.049119392703
 20
36.31804625214016
 30
0.0
 10
70.044612363363
 20
36.29523116696015
 30
0.0
 10
70.04000905024296
 20
36.25690284382017
 30
0.0
 10
70.03821328802297
 20
36.19975286922016
 30
0.0
 10
70.04124826036298
 20
36.12190668760019
 30
0.0
 10
70.04941233344294
 20
36.03381539820015
 30
0.0
 10
70.06240954392297
 20
35.93871192064017
 30
0.0
 10
70.07387839068295
 20
35.87355539360016
 30
0.0
 10
70.08033343746297
 20
35.84039746398014
 30
0.0
  0
SPLINE
  5
4E3
330
207
100
AcDbEntity
  8
0
  6
Continuous
 62
     7
100
AcDbSpline
210
0.0
220
0.0
230
1.0
 70
     8
 71
     3
 72
    18
 73
    14
 74
     0
 42
0.0000001
 43
0.0000001
 40
0.0
 40
0.0
 40
0.0
 40
0.0
 40
0.1874772923
 40
0.3670832029
 40
0.5326279072
 40
0.6783379892
 40
0.7993644217
 40
0.8495523751
 40
0.8925417477
 40
0.928360681
 40
0.9573806751
 40
0.9805804292
 40
1.0
 40
1.0
 40
1.0
 40
1.0
 10
70.08033343746297
 20
37.54039743456019
 30
0.0
 10
70.073878225583
 20
37.50723802158018
 30
0.0
 10
70.06240906640298
 20
37.44207589892017
 30
0.0
 10
70.04941195752298
 20
37.34696076530014
 30
0.0
 10
70.04124803430298
 20
37.25885155112019
 30
0.0
 10
70.03821322452296
 20
37.18098188212019
 30
0.0
 10
70.04000926868298
 20
37.12380912880013
 30
0.0
 10
70.044612429403
 20
37.08546003100014
 30
0.0
 10
70.04911958320295
 20
37.06262807006016
 30
0.0
 10
70.05484096368295
 20
37.04400813016019
 30
0.0
 10
70.06177573010297
 20
37.02964600750016
 30
0.0
 10
70.07001252338299
 20
37.01947620310017
 30
0.0
 10
70.07695422400298
 20
37.01558208846018
 30
0.0
 10
70.08033343746297
 20
37.01467343140018
 30
0.0
  0
SPLINE
  5
4E4
330
207
100
AcDbEntity
  8
0
  6
Continuous
 62
     7
100
AcDbSpline
210
0.0
220
0.0
230
1.0
 70
     8
 71
     3
 72
     9
 73
     5
 74
     0
 42
0.0000001
 43
0.0000001
 40
0.0
 40
0.0
 40
0.0
 40
0.0
 40
0.2498373708
 40
1.0
 40
1.0
 40
1.0
 40
1.0
 10
70.23563205752296
 20
38.12316583214016
 30
0.0
 10
70.219408391723
 20
38.07560889652018
 30
0.0
 10
70.15773014068299
 20
37.88416068658017
 30
0.0
 10
70.109163402663
 20
37.68849240380013
 30
0.0
 10
70.08033343746297
 20
37.54039743456019
 30
0.0
  0
SPLINE
  5
4E5
330
207
100
AcDbEntity
  8
0
  6
Continuous
 62
     7
100
AcDbSpline
210
0.0
220
0.0
230
1.0
 70
     8
 71
     3
 72
    18
 73
    14
 74
     0
 42
0.0000001
 43
0.0000001
 40
0.0
 40
0.0
 40
0.0
 40
0.0
 40
0.0194097815
 40
0.0425911137
 40
0.0715904756
 40
0.1073896456
 40
0.15036197
 40
0.2005364781
 40
0.3215485487
 40
0.467262747
 40
0.6328281835
 40
0.8124699687
 40
1.0
 40
1.0
 40
1.0
 40
1.0
 10
70.08033343746297
 20
-15.13407231153982
 30
0.0
 10
70.07695542796299
 20
-15.13497424775983
 30
0.0
 10
70.070013585103
 20
-15.13885348307983
 30
0.0
 10
70.06177544054299
 20
-15.14900634313983
 30
0.0
 10
70.054840699523
 20
-15.16335111759983
 30
0.0
 10
70.049119392703
 20
-15.18195374739986
 30
0.0
 10
70.044612363363
 20
-15.20476883257982
 30
0.0
 10
70.04000905024296
 20
-15.24309715571982
 30
0.0
 10
70.03821328802297
 20
-15.3002471303198
 30
0.0
 10
70.04124826036298
 20
-15.37809331193984
 30
0.0
 10
70.04941233344294
 20
-15.46618460387981
 30
0.0
 10
70.06240954392297
 20
-15.56128807889985
 30
0.0
 10
70.07387839068295
 20
-15.6264446084798
 30
0.0
 10
70.08033343746297
 20
-15.65960253555983
 30
0.0
  0
SPLINE
  5
4E6
330
207
100
AcDbEntity
  8
0
  6
Continuous
 62
     7
100
AcDbSpline
210
0.0
220
0.0
230
1.0
 70
     8
 71
     3
 72
    18
 73
    14
 74
     0
 42
0.0000001
 43
0.0000001
 40
0.0
 40
0.0
 40
0.0
 40
0.0
 40
0.1874772923
 40
0.3670832029
 40
0.5326279072
 40
0.6783379892
 40
0.7993644217
 40
0.8495523751
 40
0.8925417477
 40
0.928360681
 40
0.9573806751
 40
0.9805804292
 40
1.0
 40
1.0
 40
1.0
 40
1.0
 10
70.08033343746297
 20
-13.9596025649798
 30
0.0
 10
70.073878225583
 20
-13.99276197795982
 30
0.0
 10
70.06240906640298
 20
-14.05792410315985
 30
0.0
 10
70.04941195752298
 20
-14.15303923423983
 30
0.0
 10
70.04124803430298
 20
-14.24114844841984
 30
0.0
 10
70.03821322452296
 20
-14.31901811741983
 30
0.0
 10
70.04000926868298
 20
-14.37619087073983
 30
0.0
 10
70.044612429403
 20
-14.41453996853983
 30
0.0
 10
70.04911958320295
 20
-14.43737192947984
 30
0.0
 10
70.05484096368295
 20
-14.4559918693798
 30
0.0
 10
70.06177573010297
 20
-14.47035399203983
 30
0.0
 10
70.07001252338299
 20
-14.48052379897985
 30
0.0
 10
70.07695422400298
 20
-14.48441791107982
 30
0.0
 10
70.08033343746297
 20
-14.48532656813981
 30
0.0
  0
SPLINE
  5
4E7
330
207
100
AcDbEntity
  8
0
  6
Continuous
 62
     7
100
AcDbSpline
210
0.0
220
0.0
230
1.0
 70
     8
 71
     3
 72
     9
 73
     5
 74
     0
 42
0.0000001
 43
0.0000001
 40
0.0
 40
0.0
 40
0.0
 40
0.0
 40
0.2498373708
 40
1.0
 40
1.0
 40
1.0
 40
1.0
 10
70.23563205752296
 20
-13.37683416739983
 30
0.0
 10
70.219408391723
 20
-13.42439110301984
 30
0.0
 10
70.15773014068299
 20
-13.61583931295985
 30
0.0
 10
70.109163402663
 20
-13.81150759573984
 30
0.0
 10
70.08033343746297
 20
-13.9596025649798
 30
0.0
  0
DIMENSION
  5
750
102
{ACAD_REACTORS
330
764
102
}
102
{ACAD_XDICTIONARY
360
A22
102
}
330
207
100
AcDbEntity
  8
Dim
100
AcDbDimension
280
     0
  2
*D4
 10
44.16149817558536
 20
46.27318366060139
 30
0.0
 11
30.14649817541537
 21
46.27318366060139
 31
0.0
 70
    32
  1
<> LCD A.A
 71
     5
 41
1.5
 42
28.03000000033998
 73
     0
 74
     0
 75
     0
  3
STANDARD
100
AcDbAlignedDimension
 13
16.13149817524538
 23
31.02596180204017
 33
0.0
 14
44.16149817558536
 24
31.02596180204017
 34
0.0
100
AcDbRotatedDimension
1001
ACAD
1000
DSTYLE
1002
{
1070
     3
1000
<>
1070
     3
1000
<>
1070
    41
1040
1.5
1070
    43
1040
0.836
1070
    47
1040
0.0
1070
    48
1040
0.0
1070
    73
1070
     0
1070
    74
1070
     0
1070
    78
1070
     0
1070
    79
1070
     0
1070
   140
1040
1.5
1070
   141
1040
0.198
1070
   171
1070
     2
1070
   179
1070
     0
1070
   272
1070
     4
1070
   284
1070
     0
1070
   341
1005
0
1070
   343
1005
0
1070
   344
1005
0
1002
}
  0
DIMENSION
  5
766
102
{ACAD_REACTORS
330
77A
102
}
102
{ACAD_XDICTIONARY
360
A23
102
}
330
207
100
AcDbEntity
  8
Dim
100
AcDbDimension
280
     0
  2
*D14
 10
47.14649817458539
 20
52.46429790210066
 30
0.0
 11
30.14649817414539
 21
52.46429790210066
 31
0.0
 70
    32
  1
<>%%p0.2 LCM
 71
     5
 41
1.5
 42
34.00000000087999
 73
     0
 74
     0
 75
     0
  3
STANDARD
100
AcDbAlignedDimension
 13
13.1464981737054
 23
33.85596180116013
 33
0.0
 14
47.14649817458539
 24
33.85596180116013
 34
0.0
100
AcDbRotatedDimension
1001
ACAD
1000
DSTYLE
1002
{
1070
     3
1000
<>
1070
     3
1000
<>
1070
    41
1040
1.5
1070
    43
1040
0.836
1070
    47
1040
0.0
1070
    48
1040
0.0
1070
    73
1070
     0
1070
    74
1070
     0
1070
    78
1070
     0
1070
    79
1070
     0
1070
   140
1040
1.5
1070
   141
1040
0.198
1070
   171
1070
     2
1070
   179
1070
     0
1070
   272
1070
     4
1070
   284
1070
     0
1070
   341
1005
0
1070
   343
1005
0
1070
   344
1005
0
1002
}
  0
DIMENSION
  5
77C
102
{ACAD_REACTORS
330
790
102
}
102
{ACAD_XDICTIONARY
360
A24
102
}
330
207
100
AcDbEntity
  8
Dim
100
AcDbDimension
280
     0
  2
*D3
 10
8.876606833060734
 20
-4.014038196559824
 30
0.0
 11
8.876606833060734
 21
13.50596180274017
 31
0.0
 70
    32
  1
<> LCD A.A
 71
     5
 41
1.5
 42
35.0399999986
 73
     0
 74
     0
 75
     0
  3
STANDARD
100
AcDbAlignedDimension
 13
16.13149817524538
 23
31.02596180204017
 33
0.0
 14
16.13149817524538
 24
-4.014038196559824
 34
0.0
 50
90.0
100
AcDbRotatedDimension
1001
ACAD
1000
DSTYLE
1002
{
1070
     3
1000
<>
1070
     3
1000
<>
1070
    41
1040
1.5
1070
    43
1040
0.836
1070
    47
1040
0.0
1070
    48
1040
0.0
1070
    73
1070
     0
1070
    74
1070
     0
1070
    78
1070
     0
1070
    79
1070
     0
1070
   140
1040
1.5
1070
   141
1040
0.198
1070
   171
1070
     2
1070
   179
1070
     0
1070
   272
1070
     4
1070
   284
1070
     0
1070
   341
1005
0
1070
   343
1005
0
1070
   344
1005
0
1002
}
  0
DIMENSION
  5
7A5
102
{ACAD_REACTORS
330
7B9
102
}
102
{ACAD_XDICTIONARY
360
A25
102
}
330
207
100
AcDbEntity
  8
Dim
100
AcDbDimension
280
     0
  2
*D5
 10
4.816805371567824
 20
-11.97403819727981
 30
0.0
 11
4.816805371567824
 21
10.94096180194016
 31
0.0
 70
    32
  1
<>%%p0.2 LCM
 71
     5
 41
1.5
 42
45.82999999843994
 73
     0
 74
     0
 75
     0
  3
STANDARD
100
AcDbAlignedDimension
 13
13.1464981737054
 23
33.85596180116013
 33
0.0
 14
13.1464981737054
 24
-11.97403819727981
 34
0.0
 50
90.0
100
AcDbRotatedDimension
1001
ACAD
1000
DSTYLE
1002
{
1070
     3
1000
<>
1070
     3
1000
<>
1070
    41
1040
1.5
1070
    43
1040
0.836
1070
    47
1040
0.0
1070
    48
1040
0.0
1070
    73
1070
     0
1070
    74
1070
     0
1070
    78
1070
     0
1070
    79
1070
     0
1070
   140
1040
1.5
1070
   141
1040
0.198
1070
   171
1070
     2
1070
   179
1070
     0
1070
   272
1070
     4
1070
   284
1070
     0
1070
   341
1005
0
1070
   343
1005
0
1070
   344
1005
0
1002
}
  0
DIMENSION
  5
7BB
102
{ACAD_REACTORS
330
7CF
102
}
102
{ACAD_XDICTIONARY
360
A26
102
}
330
207
100
AcDbEntity
  8
Dim
100
AcDbDimension
280
     0
  2
*D6
 10
4.816805371567824
 20
39.18653524210021
 30
0.0
 11
4.816805371567824
 21
36.52124852163017
 31
0.0
 70
    32
 71
     5
 41
1.5
 42
5.330573440940071
 73
     0
 74
     0
 75
     0
  3
STANDARD
100
AcDbAlignedDimension
 13
13.1464981737054
 23
33.85596180116013
 33
0.0
 14
15.14686534136538
 24
39.18653524210021
 34
0.0
 50
90.0
100
AcDbRotatedDimension
1001
ACAD
1000
DSTYLE
1002
{
1070
    41
1040
1.5
1070
    43
1040
0.836
1070
    47
1040
0.0
1070
    48
1040
0.0
1070
    73
1070
     0
1070
    74
1070
     0
1070
    78
1070
     0
1070
    79
1070
     0
1070
   140
1040
1.5
1070
   141
1040
0.198
1070
   171
1070
     2
1070
   179
1070
     0
1070
   272
1070
     4
1070
   284
1070
     0
1070
   341
1005
0
1070
   343
1005
0
1070
   344
1005
0
1002
}
  0
DIMENSION
  5
7E7
102
{ACAD_REACTORS
330
7FB
102
}
102
{ACAD_XDICTIONARY
360
A27
102
}
330
207
100
AcDbEntity
  8
Dim
100
AcDbDimension
280
     0
  2
*D10
 10
1.024853906252332
 20
39.18653524210021
 30
0.0
 11
1.024853906252332
 21
10.93170272216018
 31
0.0
 70
    32
 71
     5
 41
1.5
 42
56.50966503988005
 73
     0
 74
     0
 75
     0
  3
STANDARD
100
AcDbAlignedDimension
 13
15.13644883184537
 23
-17.32312979777984
 33
0.0
 14
15.14686534136538
 24
39.18653524210021
 34
0.0
 50
90.0
100
AcDbRotatedDimension
1001
ACAD
1000
DSTYLE
1002
{
1070
    41
1040
1.5
1070
    43
1040
0.836
1070
    47
1040
0.0
1070
    48
1040
0.0
1070
    73
1070
     0
1070
    74
1070
     0
1070
    78
1070
     0
1070
    79
1070
     0
1070
   140
1040
1.5
1070
   141
1040
0.198
1070
   171
1070
     2
1070
   179
1070
     0
1070
   271
1070
     1
1070
   272
1070
     4
1070
   284
1070
     0
1070
   341
1005
0
1070
   343
1005
0
1070
   344
1005
0
1002
}
  0
CIRCLE
  5
850
330
207
100
AcDbEntity
  8
0
100
AcDbCircle
 10
94.74478649826534
 20
-14.80954275739981
 30
0.0
 40
1.2
  0
ARC
  5
851
330
207
100
AcDbEntity
  8
0
 62
     1
100
AcDbCircle
 10
94.74478649826534
 20
-14.80954275739981
 30
0.0
 40
1.5
100
AcDbArc
 50
187.2162284494927
 51
94.23810221933155
  0
CIRCLE
  5
852
330
207
100
AcDbEntity
  8
0
100
AcDbCircle
 10
123.7447862223054
 20
-14.81355442069983
 30
0.0
 40
1.200000000000003
  0
ARC
  5
853
330
207
100
AcDbEntity
  8
0
 62
     1
100
AcDbCircle
 10
123.7447862223054
 20
-14.81355442069983
 30
0.0
 40
1.500000000000006
100
AcDbArc
 50
187.2162284494927
 51
94.23810221933148
  0
CIRCLE
  5
854
330
207
100
AcDbEntity
  8
0
100
AcDbCircle
 10
123.7447862223054
 20
36.68644557884016
 30
0.0
 40
1.200000000000003
  0
ARC
  5
855
330
207
100
AcDbEntity
  8
0
 62
     1
100
AcDbCircle
 10
123.7447862223054
 20
36.68644557884016
 30
0.0
 40
1.500000000000007
100
AcDbArc
 50
187.2162284494927
 51
94.23810221933158
  0
CIRCLE
  5
856
330
207
100
AcDbEntity
  8
0
100
AcDbCircle
 10
94.74478649826534
 20
36.69045724214016
 30
0.0
 40
1.200000000000003
  0
ARC
  5
857
330
207
100
AcDbEntity
  8
0
 62
     1
100
AcDbCircle
 10
94.74478649826534
 20
36.69045724214016
 30
0.0
 40
1.500000000000007
100
AcDbArc
 50
187.2162284494927
 51
94.23810221933158
  0
DIMENSION
  5
858
102
{ACAD_REACTORS
330
86C
102
}
102
{ACAD_XDICTIONARY
360
A28
102
}
330
207
100
AcDbEntity
  8
Dim
100
AcDbDimension
280
     0
  2
*D13
 10
44.64640322558537
 20
49.01840430121353
 30
0.0
 11
30.14640336483538
 21
49.01840430121353
 31
0.0
 70
    32
 71
     5
 41
1.5
 42
28.99999972149999
 73
     0
 74
     0
 75
     0
  3
STANDARD
100
AcDbAlignedDimension
 13
15.64640350408538
 23
36.68644557884016
 33
0.0
 14
44.64640322558537
 24
36.69045724214016
 34
0.0
100
AcDbRotatedDimension
1001
ACAD
1000
DSTYLE
1002
{
1070
    41
1040
1.5
1070
    43
1040
0.836
1070
    47
1040
0.0
1070
    48
1040
0.0
1070
    73
1070
     0
1070
    74
1070
     0
1070
    78
1070
     0
1070
    79
1070
     0
1070
   140
1040
1.5
1070
   141
1040
0.198
1070
   171
1070
     2
1070
   179
1070
     0
1070
   272
1070
     4
1070
   284
1070
     0
1070
   341
1005
0
1070
   343
1005
0
1070
   344
1005
0
1002
}
  0
DIMENSION
  5
881
102
{ACAD_REACTORS
330
895
102
}
102
{ACAD_XDICTIONARY
360
A29
102
}
330
207
100
AcDbEntity
  8
Dim
100
AcDbDimension
280
     0
  2
*D15
 10
51.30109160199861
 20
-14.80954275739981
 30
0.0
 11
51.30109160199861
 21
10.94045724237017
 31
0.0
 70
    32
 71
     5
 41
1.5
 42
51.49999999953997
 73
     0
 74
     0
 75
     0
  3
STANDARD
100
AcDbAlignedDimension
 13
44.64640322558537
 23
36.69045724214016
 33
0.0
 14
44.64640322558537
 24
-14.80954275739981
 34
0.0
 50
90.0
100
AcDbRotatedDimension
1001
ACAD
1000
DSTYLE
1002
{
1070
    41
1040
1.5
1070
    43
1040
0.836
1070
    47
1040
0.0
1070
    48
1040
0.0
1070
    73
1070
     0
1070
    74
1070
     0
1070
    78
1070
     0
1070
    79
1070
     0
1070
   140
1040
1.5
1070
   141
1040
0.198
1070
   171
1070
     2
1070
   179
1070
     0
1070
   272
1070
     4
1070
   284
1070
     0
1070
   341
1005
0
1070
   343
1005
0
1070
   344
1005
0
1002
}
  0
DIMENSION
  5
897
102
{ACAD_REACTORS
330
8AB
330
8C1
102
}
102
{ACAD_XDICTIONARY
360
A2A
102
}
330
207
100
AcDbEntity
  8
Dim
100
AcDbDimension
280
     0
  2
*D16
 10
117.9122593402654
 20
-24.42773327626944
 30
0.0
 11
109.0222594913954
 21
-24.42773327626944
 31
0.0
 70
    32
 71
     5
 41
1.5
 42
17.77999969774001
 73
     0
 74
     0
 75
     0
  3
STANDARD
100
AcDbAlignedDimension
 13
100.1322596425254
 23
-14.72291042621981
 33
0.0
 14
117.9122593402654
 24
-14.71963301087982
 34
0.0
100
AcDbRotatedDimension
1001
ACAD
1000
DSTYLE
1002
{
1070
    41
1040
1.5
1070
    43
1040
0.836
1070
    47
1040
0.0
1070
    48
1040
0.0
1070
    73
1070
     0
1070
    74
1070
     0
1070
    78
1070
     0
1070
    79
1070
     0
1070
   140
1040
1.5
1070
   141
1040
0.198
1070
   171
1070
     2
1070
   179
1070
     0
1070
   272
1070
     4
1070
   284
1070
     0
1070
   341
1005
0
1070
   343
1005
0
1070
   344
1005
0
1002
}
  0
DIMENSION
  5
8AD
102
{ACAD_REACTORS
330
8C1
102
}
102
{ACAD_XDICTIONARY
360
A2B
102
}
330
207
100
AcDbEntity
  8
Dim
100
AcDbDimension
280
     0
  2
*D17
 10
102.6722595993454
 20
-20.50325403930543
 30
0.0
 11
108.7622595993454
 21
-20.50325403930543
 31
0.0
 70
    32
  1
7*<>
 71
     5
 41
1.5
 42
2.539999956819997
 73
     0
 74
     0
 75
     0
  3
STANDARD
100
AcDbAlignedDimension
 13
100.1322596425254
 23
-14.78541042621981
 33
0.0
 14
102.6722595993454
 24
-14.72244222293983
 34
0.0
100
AcDbRotatedDimension
1001
ACAD
1000
DSTYLE
1002
{
1070
     3
1000
<>
1070
     3
1000
<>
1070
    41
1040
1.5
1070
    43
1040
0.836
1070
    47
1040
0.0
1070
    48
1040
0.0
1070
    73
1070
     0
1070
    74
1070
     0
1070
    78
1070
     0
1070
    79
1070
     0
1070
   140
1040
1.5
1070
   141
1040
0.198
1070
   171
1070
     2
1070
   179
1070
     0
1070
   272
1070
     4
1070
   284
1070
     0
1070
   341
1005
0
1070
   343
1005
0
1070
   344
1005
0
1002
}
  0
DIMENSION
  5
8C3
102
{ACAD_REACTORS
330
8D7
102
}
102
{ACAD_XDICTIONARY
360
A2C
102
}
330
207
100
AcDbEntity
  8
Dim
100
AcDbDimension
280
     0
  2
*D18
 10
120.1122754678678
 20
-17.32225237084611
 30
0.0
 11
120.1122754678678
 21
-22.11225237084611
 31
0.0
 70
    32
 71
     5
 41
1.5
 42
2.60261935996629
 73
     0
 74
     0
 75
     0
  3
STANDARD
100
AcDbAlignedDimension
 13
117.9122593402654
 23
-14.71963301087982
 33
0.0
 14
117.9118993116519
 24
-17.32225237084611
 34
0.0
 50
90.0
100
AcDbRotatedDimension
1001
ACAD
1000
DSTYLE
1002
{
1070
    41
1040
1.5
1070
    43
1040
0.836
1070
    47
1040
0.0
1070
    48
1040
0.0
1070
    73
1070
     0
1070
    74
1070
     0
1070
    78
1070
     0
1070
    79
1070
     0
1070
   140
1040
1.5
1070
   141
1040
0.198
1070
   171
1070
     2
1070
   179
1070
     0
1070
   272
1070
     4
1070
   284
1070
     0
1070
   341
1005
0
1070
   343
1005
0
1070
   344
1005
0
1002
}
  0
DIMENSION
  5
8D9
102
{ACAD_REACTORS
330
8ED
102
}
102
{ACAD_XDICTIONARY
360
A2D
102
}
330
207
100
AcDbEntity
  8
Dim
100
AcDbDimension
280
     0
  2
*D19
 10
104.2540534702954
 20
23.04267527882364
 30
0.0
 11
108.9440534702954
 21
23.04267527882364
 31
0.0
 70
    32
 71
     5
 41
1.5
 42
1.999999981449989
 73
     0
 74
     0
 75
     0
  3
STANDARD
100
AcDbAlignedDimension
 13
102.2540534888454
 23
25.48957709505017
 33
0.0
 14
104.2540534702954
 24
25.48930042809016
 34
0.0
100
AcDbRotatedDimension
1001
ACAD
1000
DSTYLE
1002
{
1070
    41
1040
1.5
1070
    43
1040
0.836
1070
    47
1040
0.0
1070
    48
1040
0.0
1070
    73
1070
     0
1070
    74
1070
     0
1070
    78
1070
     0
1070
    79
1070
     0
1070
   140
1040
1.5
1070
   141
1040
0.198
1070
   171
1070
     2
1070
   179
1070
     0
1070
   272
1070
     4
1070
   284
1070
     0
1070
   341
1005
0
1070
   343
1005
0
1070
   344
1005
0
1002
}
  0
ARC
  5
8EF
102
{ACAD_REACTORS
330
903
102
}
330
207
100
AcDbEntity
  8
0
  6
Continuous
 62
     7
100
AcDbCircle
 10
45.14649817458533
 20
-15.31897839201462
 30
0.0
 40
2.0
100
AcDbArc
 50
270.0079259093744
 51
0.0000000000015776
  0
DIMENSION
  5
8F1
102
{ACAD_REACTORS
330
903
102
}
102
{ACAD_XDICTIONARY
360
A2E
102
}
330
207
100
AcDbEntity
  8
Dim
100
AcDbDimension
280
     0
  2
*D20
 10
45.14649817458533
 20
-15.31897839201462
 30
0.0
 11
53.8466480395749
 21
-20.630888713276
 31
0.0
 70
   164
  1
4*R<>
 71
     5
 41
0.0
 42
-1.0
 73
     0
 74
     0
 75
     0
  3
STANDARD
100
AcDbRadialDimension
 15
46.2917261228275
 25
-16.95862864330754
 35
0.0
 40
0.0
1001
ACAD_DSTYLE_DIMRADIAL_EXTENSION
1070
   387
1070
     1
1070
   388
1040
4.712527313599487
1070
   390
1040
6.283185307179614
1001
ACAD
1000
DSTYLE
1002
{
1070
     3
1000
<>
1070
     3
1000
<>
1070
    41
1040
1.5
1070
    43
1040
0.836
1070
    47
1040
0.0
1070
    48
1040
0.0
1070
    73
1070
     0
1070
    78
1070
     0
1070
    79
1070
     0
1070
   140
1040
1.5
1070
   141
1040
0.198
1070
   171
1070
     2
1070
   179
1070
     0
1070
   272
1070
     4
1070
   284
1070
     0
1070
   341
1005
0
1070
   343
1005
0
1070
   344
1005
0
1002
}
  0
DIMENSION
  5
905
102
{ACAD_REACTORS
330
919
102
}
102
{ACAD_XDICTIONARY
360
A2F
102
}
330
207
100
AcDbEntity
  8
Dim
100
AcDbDimension
280
     0
  2
*D23
 10
68.68469171262296
 20
44.22037693817376
 30
0.0
 11
70.88469171317297
 21
44.22037693817376
 31
0.0
 70
    32
 71
     5
 41
1.5
 42
4.400000001100011
 73
     0
 74
     0
 75
     0
  3
STANDARD
100
AcDbAlignedDimension
 13
73.08469171372298
 23
39.37513594694013
 33
0.0
 14
68.68469171262296
 24
33.85596180116013
 34
0.0
100
AcDbRotatedDimension
1001
ACAD
1000
DSTYLE
1002
{
1070
    41
1040
1.5
1070
    43
1040
0.836
1070
    47
1040
0.0
1070
    48
1040
0.0
1070
    73
1070
     0
1070
    74
1070
     0
1070
    78
1070
     0
1070
    79
1070
     0
1070
   140
1040
1.5
1070
   141
1040
0.198
1070
   171
1070
     2
1070
   179
1070
     0
1070
   272
1070
     4
1070
   284
1070
     0
1070
   341
1005
0
1070
   343
1005
0
1070
   344
1005
0
1002
}
  0
DIMENSION
  5
91B
102
{ACAD_REACTORS
330
92F
102
}
102
{ACAD_XDICTIONARY
360
A30
102
}
330
207
100
AcDbEntity
  8
Dim
100
AcDbDimension
280
     0
  2
*D24
 10
68.68469171262296
 20
48.97166175286164
 30
0.0
 11
73.88469171265297
 21
48.97166175286164
 31
0.0
 70
    32
 71
     5
 41
1.5
 42
10.40000000006
 73
     0
 74
     0
 75
     0
  3
STANDARD
100
AcDbAlignedDimension
 13
79.08469171268297
 23
39.37513594694013
 33
0.0
 14
68.68469171262296
 24
33.85596180116013
 34
0.0
100
AcDbRotatedDimension
1001
ACAD
1000
DSTYLE
1002
{
1070
    41
1040
1.5
1070
    43
1040
0.836
1070
    47
1040
0.0
1070
    48
1040
0.0
1070
    73
1070
     0
1070
    74
1070
     0
1070
    78
1070
     0
1070
    79
1070
     0
1070
   140
1040
1.5
1070
   141
1040
0.198
1070
   171
1070
     2
1070
   179
1070
     0
1070
   272
1070
     4
1070
   284
1070
     0
1070
   341
1005
0
1070
   343
1005
0
1070
   344
1005
0
1002
}
  0
ENDSEC
  0
SECTION
  2
OBJECTS
  0
DICTIONARY
  5
C
330
0
100
AcDbDictionary
281
     1
  3
ACAD_DETAILVIEWSTYLE
350
A38
  3
ACAD_GROUP
350
D
  3
ACAD_LAYOUT
350
1A
  3
ACAD_MATERIAL
350
545
  3
ACAD_MLEADERSTYLE
350
54B
  3
ACAD_MLINESTYLE
350
17
  3
ACAD_PLOTSETTINGS
350
19
  3
ACAD_PLOTSTYLENAME
350
E
  3
ACAD_SCALELIST
350
50A
  3
ACAD_SECTIONVIEWSTYLE
350
A39
  3
ACAD_TABLESTYLE
350
549
  3
ACAD_VISUALSTYLE
350
52C
  3
ACDB_RECOMPOSE_DATA
350
EF4
  3
ACDBVARIABLEDICTIONARY
350
741
  0
SUN
  5
A21
330
1F4
100
AcDbSun
 90
        1
290
     0
 63
     7
421
 16777215
 40
1.0
291
     1
 91
  2455826
 92
 54000000
292
     0
 70
     2
 71
   256
280
     1
  0
DICTIONARY
  5
A22
330
750
100
AcDbDictionary
280
     1
281
     1
  3
ACAD_DIMASSOC
360
764
  0
DICTIONARY
  5
A23
330
766
100
AcDbDictionary
280
     1
281
     1
  3
ACAD_DIMASSOC
360
77A
  0
DICTIONARY
  5
A24
330
77C
100
AcDbDictionary
280
     1
281
     1
  3
ACAD_DIMASSOC
360
790
  0
DICTIONARY
  5
A25
330
7A5
100
AcDbDictionary
280
     1
281
     1
  3
ACAD_DIMASSOC
360
7B9
  0
DICTIONARY
  5
A26
330
7BB
100
AcDbDictionary
280
     1
281
     1
  3
ACAD_DIMASSOC
360
7CF
  0
DICTIONARY
  5
A27
330
7E7
100
AcDbDictionary
280
     1
281
     1
  3
ACAD_DIMASSOC
360
7FB
  0
DICTIONARY
  5
A28
330
858
100
AcDbDictionary
280
     1
281
     1
  3
ACAD_DIMASSOC
360
86C
  0
DICTIONARY
  5
A29
330
881
100
AcDbDictionary
280
     1
281
     1
  3
ACAD_DIMASSOC
360
895
  0
DICTIONARY
  5
A2A
330
897
100
AcDbDictionary
280
     1
281
     1
  3
ACAD_DIMASSOC
360
8AB
  0
DICTIONARY
  5
A2B
330
8AD
100
AcDbDictionary
280
     1
281
     1
  3
ACAD_DIMASSOC
360
8C1
  0
DICTIONARY
  5
A2C
330
8C3
100
AcDbDictionary
280
     1
281
     1
  3
ACAD_DIMASSOC
360
8D7
  0
DICTIONARY
  5
A2D
330
8D9
100
AcDbDictionary
280
     1
281
     1
  3
ACAD_DIMASSOC
360
8ED
  0
DICTIONARY
  5
A2E
330
8F1
100
AcDbDictionary
280
     1
281
     1
  3
ACAD_DIMASSOC
360
903
  0
DICTIONARY
  5
A2F
330
905
100
AcDbDictionary
280
     1
281
     1
  3
ACAD_DIMASSOC
360
919
  0
DICTIONARY
  5
A30
330
91B
100
AcDbDictionary
280
     1
281
     1
  3
ACAD_DIMASSOC
360
92F
  0
DICTIONARY
  5
A38
102
{ACAD_REACTORS
330
C
102
}
330
C
100
AcDbDictionary
281
     1
  0
DICTIONARY
  5
D
102
{ACAD_REACTORS
330
C
102
}
330
C
100
AcDbDictionary
281
     1
  0
DICTIONARY
  5
1A
102
{ACAD_REACTORS
330
C
102
}
330
C
100
AcDbDictionary
281
     1
  3
Layout1
350
509
  3
Model
350
508
  0
DICTIONARY
  5
545
102
{ACAD_REACTORS
330
C
102
}
330
C
100
AcDbDictionary
281
     1
  3
ByBlock
350
547
  3
ByLayer
350
546
  3
Global
350
548
  0
DICTIONARY
  5
54B
102
{ACAD_REACTORS
330
C
102
}
330
C
100
AcDbDictionary
281
     1
  3
Standard
350
54C
  0
DICTIONARY
  5
17
102
{ACAD_REACTORS
330
C
102
}
330
C
100
AcDbDictionary
281
     1
  3
Standard
350
18
  0
DICTIONARY
  5
19
102
{ACAD_REACTORS
330
C
102
}
330
C
100
AcDbDictionary
281
     1
  0
ACDBDICTIONARYWDFLT
  5
E
102
{ACAD_REACTORS
330
C
102
}
330
C
100
AcDbDictionary
281
     1
  3
Normal
350
F
100
AcDbDictionaryWithDefault
340
F
  0
DICTIONARY
  5
50A
102
{ACAD_REACTORS
330
C
102
}
330
C
100
AcDbDictionary
281
     1
  3
A0
350
50B
  3
A1
350
50C
  3
A2
350
50D
  3
A3
350
50E
  3
A4
350
50F
  3
A5
350
510
  3
A6
350
511
  3
A7
350
512
  3
A8
350
513
  3
A9
350
514
  3
B0
350
515
  3
B1
350
516
  3
B2
350
517
  3
B3
350
518
  3
B4
350
519
  3
B5
350
51A
  3
B6
350
51B
  3
B7
350
51C
  3
B8
350
51D
  3
B9
350
51E
  3
C0
350
51F
  3
C1
350
520
  3
C2
350
521
  3
C3
350
522
  3
C4
350
523
  3
C5
350
524
  3
C6
350
525
  3
C7
350
526
  3
C8
350
527
  3
C9
350
528
  3
D0
350
529
  3
D1
350
52A
  3
D2
350
52B
  0
DICTIONARY
  5
A39
102
{ACAD_REACTORS
330
C
102
}
330
C
100
AcDbDictionary
281
     1
  0
DICTIONARY
  5
549
102
{ACAD_REACTORS
330
C
102
}
330
C
100
AcDbDictionary
281
     1
  3
Standard
350
54A
  0
DICTIONARY
  5
52C
102
{ACAD_REACTORS
330
C
102
}
330
C
100
AcDbDictionary
281
     1
  3
2dWireframe
350
531
  3
Basic
350
534
  3
Brighten
350
538
  3
ColorChange
350
53C
  3
Conceptual
350
536
  3
Dim
350
537
  3
EdgeColorOff
350
53F
  3
Facepattern
350
53B
  3
Flat
350
52D
  3
FlatWithEdges
350
52E
  3
Gouraud
350
52F
  3
GouraudWithEdges
350
530
  3
Hidden
350
533
  3
JitterOff
350
53D
  3
Linepattern
350
53A
  3
OverhangOff
350
53E
  3
Realistic
350
535
  3
Shaded
350
544
  3
Shaded with edges
350
543
  3
Shades of Gray
350
540
  3
Sketchy
350
541
  3
Thicken
350
539
  3
Wireframe
350
532
  3
X-Ray
350
542
  0
XRECORD
  5
EF4
102
{ACAD_REACTORS
330
C
102
}
330
C
100
AcDbXrecord
280
     1
 90
        1
330
54A
  0
DICTIONARY
  5
741
102
{ACAD_REACTORS
330
C
102
}
330
C
100
AcDbDictionary
281
     1
  3
CANNOSCALE
350
A31
  3
CMLEADERSTYLE
350
EF6
  3
CTABLESTYLE
350
EF5
  3
XCLIPFRAME
350
EF7
  0
DIMASSOC
  5
764
102
{ACAD_REACTORS
330
A22
102
}
330
A22
100
AcDbDimAssoc
330
750
 90
        3
 70
     0
 71
     0
  1
AcDbOsnapPointRef
 72
     1
331
255
 73
     2
 91
        0
 40
1.0
 10
0.0
 20
0.0
 30
0.0
 75
     0
  1
AcDbOsnapPointRef
 72
     1
331
279
 73
     2
 91
        0
 40
1.0
 10
0.0
 20
0.0
 30
0.0
 75
     0
  0
DIMASSOC
  5
77A
102
{ACAD_REACTORS
330
A23
102
}
330
A23
100
AcDbDimAssoc
330
766
 90
        3
 70
     0
 71
     0
  1
AcDbOsnapPointRef
 72
    13
331
24A
 73
     2
 91
        0
 40
0.0
 10
0.0
 20
0.0
 30
0.0
 75
     0
  1
AcDbOsnapPointRef
 72
    13
331
297
 73
     2
 91
        0
 40
0.0
 10
0.0
 20
0.0
 30
0.0
 75
     0
  0
DIMASSOC
  5
790
102
{ACAD_REACTORS
330
A24
102
}
330
A24
100
AcDbDimAssoc
330
77C
 90
        3
 70
     0
 71
     0
  1
AcDbOsnapPointRef
 72
     1
331
255
 73
     2
 91
        0
 40
1.0
 10
0.0
 20
0.0
 30
0.0
 75
     0
  1
AcDbOsnapPointRef
 72
    13
331
255
 73
     2
 91
        0
 40
0.0
 10
0.0
 20
0.0
 30
0.0
 75
     0
  0
DIMASSOC
  5
7B9
102
{ACAD_REACTORS
330
A25
102
}
330
A25
100
AcDbDimAssoc
330
7A5
 90
        3
 70
     0
 71
     0
  1
AcDbOsnapPointRef
 72
    13
331
24A
 73
     2
 91
        0
 40
0.0
 10
0.0
 20
0.0
 30
0.0
 75
     0
  1
AcDbOsnapPointRef
 72
    13
331
23E
 73
     2
 91
        0
 40
0.0
 10
0.0
 20
0.0
 30
0.0
 75
     0
  0
DIMASSOC
  5
7CF
102
{ACAD_REACTORS
330
A26
102
}
330
A26
100
AcDbDimAssoc
330
7BB
 90
        3
 70
     0
 71
     0
  1
AcDbOsnapPointRef
 72
    13
331
24A
 73
     2
 91
        0
 40
0.0
 10
0.0
 20
0.0
 30
0.0
 75
     0
  1
AcDbOsnapPointRef
 72
     1
331
2AE
 73
     2
 91
        0
 40
1.0
 10
0.0
 20
0.0
 30
0.0
 75
     0
  0
DIMASSOC
  5
7FB
102
{ACAD_REACTORS
330
A27
102
}
330
A27
100
AcDbDimAssoc
330
7E7
 90
        3
 70
     0
 71
     0
  1
AcDbOsnapPointRef
 72
     1
331
21E
 73
     2
 91
        0
 40
1.0
 10
0.0
 20
0.0
 30
0.0
 75
     0
  1
AcDbOsnapPointRef
 72
     1
331
2AE
 73
     2
 91
        0
 40
1.0
 10
0.0
 20
0.0
 30
0.0
 75
     0
  0
DIMASSOC
  5
86C
102
{ACAD_REACTORS
330
A28
102
}
330
A28
100
AcDbDimAssoc
330
858
 90
        3
 70
     0
 71
     0
  1
AcDbOsnapPointRef
 72
     3
331
41E
 73
     2
 91
        0
 40
0.0
 10
0.0
 20
0.0
 30
0.0
 75
     0
  1
AcDbOsnapPointRef
 72
     3
331
43C
 73
     2
 91
        0
 40
0.0
 10
0.0
 20
0.0
 30
0.0
 75
     0
  0
DIMASSOC
  5
895
102
{ACAD_REACTORS
330
A29
102
}
330
A29
100
AcDbDimAssoc
330
881
 90
        3
 70
     0
 71
     0
  1
AcDbOsnapPointRef
 72
     3
331
43C
 73
     2
 91
        0
 40
0.0
 10
0.0
 20
0.0
 30
0.0
 75
     0
  1
AcDbOsnapPointRef
 72
     3
331
42A
 73
     2
 91
        0
 40
0.0
 10
0.0
 20
0.0
 30
0.0
 75
     0
  0
DIMASSOC
  5
8AB
102
{ACAD_REACTORS
330
A2A
102
}
330
A2A
100
AcDbDimAssoc
330
897
 90
        3
 70
     0
 71
     0
  1
AcDbOsnapPointRef
 72
     3
331
474
 73
     2
 91
        0
 40
0.0
 10
0.0
 20
0.0
 30
0.0
 75
     0
  1
AcDbOsnapPointRef
 72
     3
331
49D
 73
     2
 91
        0
 40
0.0
 10
0.0
 20
0.0
 30
0.0
 75
     0
  0
DIMASSOC
  5
8C1
102
{ACAD_REACTORS
330
A2B
102
}
330
A2B
100
AcDbDimAssoc
330
8AD
 90
        3
 70
     0
 71
     0
  1
AcDbOsnapPointRef
 72
    13
331
897
331
89B
 73
     2
 91
        0
 40
0.0
 10
0.0
 20
0.0
 30
0.0
 75
     0
  1
AcDbOsnapPointRef
 72
     3
331
475
 73
     2
 91
        0
 40
0.0
 10
0.0
 20
0.0
 30
0.0
 75
     0
  0
DIMASSOC
  5
8D7
102
{ACAD_REACTORS
330
A2C
102
}
330
A2C
100
AcDbDimAssoc
330
8C3
 90
        1
 70
     0
 71
     0
  1
AcDbOsnapPointRef
 72
     3
331
49D
 73
     2
 91
        0
 40
0.0
 10
0.0
 20
0.0
 30
0.0
 75
     0
  0
DIMASSOC
  5
8ED
102
{ACAD_REACTORS
330
A2D
102
}
330
A2D
100
AcDbDimAssoc
330
8D9
 90
        3
 70
     0
 71
     0
  1
AcDbOsnapPointRef
 72
     2
331
3C9
 73
     2
 91
        0
 40
0.5
 10
0.0
 20
0.0
 30
0.0
 75
     0
  1
AcDbOsnapPointRef
 72
     2
331
3C8
 73
     2
 91
        0
 40
0.5
 10
0.0
 20
0.0
 30
0.0
 75
     0
  0
DIMASSOC
  5
903
102
{ACAD_REACTORS
330
A2E
102
}
330
A2E
100
AcDbDimAssoc
330
8F1
 90
        2
 70
     0
 71
     0
  1
AcDbOsnapPointRef
 72
     3
331
8EF
 73
     0
 91
        0
 40
0.0
 10
0.0
 20
0.0
 30
0.0
 75
     0
  0
DIMASSOC
  5
919
102
{ACAD_REACTORS
330
A2F
102
}
330
A2F
100
AcDbDimAssoc
330
905
 90
        3
 70
     0
 71
     0
  1
AcDbOsnapPointRef
 72
     1
331
2EC
 73
     2
 91
        0
 40
1.0
 10
0.0
 20
0.0
 30
0.0
 75
     0
  1
AcDbOsnapPointRef
 72
     1
331
2E2
 73
     2
 91
        0
 40
1.0
 10
0.0
 20
0.0
 30
0.0
 75
     0
  0
DIMASSOC
  5
92F
102
{ACAD_REACTORS
330
A30
102
}
330
A30
100
AcDbDimAssoc
330
91B
 90
        3
 70
     0
 71
     0
  1
AcDbOsnapPointRef
 72
     1
331
31B
 73
     2
 91
        0
 40
1.0
 10
0.0
 20
0.0
 30
0.0
 75
     0
  1
AcDbOsnapPointRef
 72
     1
331
2E2
 73
     2
 91
        0
 40
1.0
 10
0.0
 20
0.0
 30
0.0
 75
     0
  0
LAYOUT
  5
509
102
{ACAD_REACTORS
330
1A
102
}
330
1A
100
AcDbPlotSettings
  1

  2
None
  4
ANSI_C_(22.00_x_17.00_Inches)
  6

 40
0.0
 41
0.0
 42
0.0
 43
0.0
 44
558.8
 45
431.8
 46
0.0
 47
0.0
 48
0.0
 49
0.0
140
0.0
141
0.0
142
1.0
143
1.0
 70
     0
 72
     0
 73
     0
 74
     0
  7

 75
     0
 76
     0
 77
     0
 78
     0
147
1.0
148
0.0
149
0.0
100
AcDbLayout
  1
Layout1
 70
     0
 71
     1
 10
0.0
 20
0.0
 11
12.0
 21
9.0
 12
0.0
 22
0.0
 32
0.0
 14
0.0
 24
0.0
 34
0.0
 15
0.0
 25
0.0
 35
0.0
146
0.0
 13
0.0
 23
0.0
 33
0.0
 16
1.0
 26
0.0
 36
0.0
 17
0.0
 27
1.0
 37
0.0
 76
     0
330
208
  0
LAYOUT
  5
508
102
{ACAD_REACTORS
330
1A
102
}
330
1A
100
AcDbPlotSettings
  1

  2
导出为WPS PDF
  4
A4 Transverse
  6

 40
0.0
 41
0.0
 42
0.0
 43
0.0
 44
210.0
 45
297.0
 46
0.0
 47
0.0
 48
-6.87784286220716
 49
-29.32525823688354
140
138.9156917777466
141
59.09785982647212
142
1.0
143
1.0
 70
  1156
 72
     1
 73
     1
 74
     4
  7

 75
    16
 76
     0
 77
     0
 78
     0
147
1.0
148
0.0
149
0.0
100
AcDbLayout
  1
Model
 70
  1156
 71
     0
 10
0.0
 20
0.0
 11
22.0
 21
17.0
 12
0.0
 22
0.0
 32
0.0
 14
0.0
 24
0.0
 34
0.0
 15
0.0
 25
0.0
 35
0.0
146
0.0
 13
0.0
 23
0.0
 33
0.0
 16
1.0
 26
0.0
 36
0.0
 17
0.0
 27
1.0
 37
0.0
 76
     0
330
207
331
1F4
  0
MATERIAL
  5
547
102
{ACAD_REACTORS
330
545
102
}
330
545
100
AcDbMaterial
  1
ByBlock
 72
     1
 94
      127
  0
MATERIAL
  5
546
102
{ACAD_REACTORS
330
545
102
}
330
545
100
AcDbMaterial
  1
ByLayer
 72
     1
 94
      127
  0
MATERIAL
  5
548
102
{ACAD_REACTORS
330
545
102
}
330
545
100
AcDbMaterial
  1
Global
 72
     1
 94
      127
  0
MLEADERSTYLE
  5
54C
102
{ACAD_REACTORS
330
54B
102
}
330
54B
100
AcDbMLeaderStyle
179
     2
170
     2
171
     1
172
     0
 90
        2
 40
0.0
 41
0.0
173
     1
 91
-1056964608
340
14
 92
       -2
290
     1
 42
0.09
291
     1
 43
0.36
  3
Standard
341
0
 44
0.18
300

342
11
174
     1
178
     6
175
     1
176
     0
 93
-1056964608
 45
0.18
292
     0
297
     0
 46
0.18
343
0
 94
-1056964608
 47
1.0
 49
1.0
140
1.0
293
     1
141
0.0
294
     1
177
     0
142
1.0
295
     0
296
     0
143
0.125
271
     0
272
     9
273
     9
298
     0
  0
MLINESTYLE
  5
18
102
{ACAD_REACTORS
330
17
102
}
330
17
100
AcDbMlineStyle
  2
STANDARD
 70
     0
  3

 62
   256
 51
90.0
 52
90.0
 71
     2
 49
0.5
 62
   256
  6
BYLAYER
 49
-0.5
 62
   256
  6
BYLAYER
  0
ACDBPLACEHOLDER
  5
F
102
{ACAD_REACTORS
330
E
102
}
330
E
  0
SCALE
  5
50B
102
{ACAD_REACTORS
330
50A
102
}
330
50A
100
AcDbScale
 70
     0
300
1:1
140
1.0
141
1.0
290
     1
  0
SCALE
  5
50C
102
{ACAD_REACTORS
330
50A
102
}
330
50A
100
AcDbScale
 70
     0
300
1:2
140
1.0
141
2.0
290
     0
  0
SCALE
  5
50D
102
{ACAD_REACTORS
330
50A
102
}
330
50A
100
AcDbScale
 70
     0
300
1:4
140
1.0
141
4.0
290
     0
  0
SCALE
  5
50E
102
{ACAD_REACTORS
330
50A
102
}
330
50A
100
AcDbScale
 70
     0
300
1:5
140
1.0
141
5.0
290
     0
  0
SCALE
  5
50F
102
{ACAD_REACTORS
330
50A
102
}
330
50A
100
AcDbScale
 70
     0
300
1:8
140
1.0
141
8.0
290
     0
  0
SCALE
  5
510
102
{ACAD_REACTORS
330
50A
102
}
330
50A
100
AcDbScale
 70
     0
300
1:10
140
1.0
141
10.0
290
     0
  0
SCALE
  5
511
102
{ACAD_REACTORS
330
50A
102
}
330
50A
100
AcDbScale
 70
     0
300
1:16
140
1.0
141
16.0
290
     0
  0
SCALE
  5
512
102
{ACAD_REACTORS
330
50A
102
}
330
50A
100
AcDbScale
 70
     0
300
1:20
140
1.0
141
20.0
290
     0
  0
SCALE
  5
513
102
{ACAD_REACTORS
330
50A
102
}
330
50A
100
AcDbScale
 70
     0
300
1:30
140
1.0
141
30.0
290
     0
  0
SCALE
  5
514
102
{ACAD_REACTORS
330
50A
102
}
330
50A
100
AcDbScale
 70
     0
300
1:40
140
1.0
141
40.0
290
     0
  0
SCALE
  5
515
102
{ACAD_REACTORS
330
50A
102
}
330
50A
100
AcDbScale
 70
     0
300
1:50
140
1.0
141
50.0
290
     0
  0
SCALE
  5
516
102
{ACAD_REACTORS
330
50A
102
}
330
50A
100
AcDbScale
 70
     0
300
1:100
140
1.0
141
100.0
290
     0
  0
SCALE
  5
517
102
{ACAD_REACTORS
330
50A
102
}
330
50A
100
AcDbScale
 70
     0
300
2:1
140
2.0
141
1.0
290
     0
  0
SCALE
  5
518
102
{ACAD_REACTORS
330
50A
102
}
330
50A
100
AcDbScale
 70
     0
300
4:1
140
4.0
141
1.0
290
     0
  0
SCALE
  5
519
102
{ACAD_REACTORS
330
50A
102
}
330
50A
100
AcDbScale
 70
     0
300
8:1
140
8.0
141
1.0
290
     0
  0
SCALE
  5
51A
102
{ACAD_REACTORS
330
50A
102
}
330
50A
100
AcDbScale
 70
     0
300
10:1
140
10.0
141
1.0
290
     0
  0
SCALE
  5
51B
102
{ACAD_REACTORS
330
50A
102
}
330
50A
100
AcDbScale
 70
     0
300
100:1
140
100.0
141
1.0
290
     0
  0
SCALE
  5
51C
102
{ACAD_REACTORS
330
50A
102
}
330
50A
100
AcDbScale
 70
     0
300
1/128" = 1'-0"
140
0.0078125
141
12.0
290
     0
  0
SCALE
  5
51D
102
{ACAD_REACTORS
330
50A
102
}
330
50A
100
AcDbScale
 70
     0
300
1/64" = 1'-0"
140
0.015625
141
12.0
290
     0
  0
SCALE
  5
51E
102
{ACAD_REACTORS
330
50A
102
}
330
50A
100
AcDbScale
 70
     0
300
1/32" = 1'-0"
140
0.03125
141
12.0
290
     0
  0
SCALE
  5
51F
102
{ACAD_REACTORS
330
50A
102
}
330
50A
100
AcDbScale
 70
     0
300
1/16" = 1'-0"
140
0.0625
141
12.0
290
     0
  0
SCALE
  5
520
102
{ACAD_REACTORS
330
50A
102
}
330
50A
100
AcDbScale
 70
     0
300
3/32" = 1'-0"
140
0.09375
141
12.0
290
     0
  0
SCALE
  5
521
102
{ACAD_REACTORS
330
50A
102
}
330
50A
100
AcDbScale
 70
     0
300
1/8" = 1'-0"
140
0.125
141
12.0
290
     0
  0
SCALE
  5
522
102
{ACAD_REACTORS
330
50A
102
}
330
50A
100
AcDbScale
 70
     0
300
3/16" = 1'-0"
140
0.1875
141
12.0
290
     0
  0
SCALE
  5
523
102
{ACAD_REACTORS
330
50A
102
}
330
50A
100
AcDbScale
 70
     0
300
1/4" = 1'-0"
140
0.25
141
12.0
290
     0
  0
SCALE
  5
524
102
{ACAD_REACTORS
330
50A
102
}
330
50A
100
AcDbScale
 70
     0
300
3/8" = 1'-0"
140
0.375
141
12.0
290
     0
  0
SCALE
  5
525
102
{ACAD_REACTORS
330
50A
102
}
330
50A
100
AcDbScale
 70
     0
300
1/2" = 1'-0"
140
0.5
141
12.0
290
     0
  0
SCALE
  5
526
102
{ACAD_REACTORS
330
50A
102
}
330
50A
100
AcDbScale
 70
     0
300
3/4" = 1'-0"
140
0.75
141
12.0
290
     0
  0
SCALE
  5
527
102
{ACAD_REACTORS
330
50A
102
}
330
50A
100
AcDbScale
 70
     0
300
1" = 1'-0"
140
1.0
141
12.0
290
     0
  0
SCALE
  5
528
102
{ACAD_REACTORS
330
50A
102
}
330
50A
100
AcDbScale
 70
     0
300
1-1/2" = 1'-0"
140
1.5
141
12.0
290
     0
  0
SCALE
  5
529
102
{ACAD_REACTORS
330
50A
102
}
330
50A
100
AcDbScale
 70
     0
300
3" = 1'-0"
140
3.0
141
12.0
290
     0
  0
SCALE
  5
52A
102
{ACAD_REACTORS
330
50A
102
}
330
50A
100
AcDbScale
 70
     0
300
6" = 1'-0"
140
6.0
141
12.0
290
     0
  0
SCALE
  5
52B
102
{ACAD_REACTORS
330
50A
102
}
330
50A
100
AcDbScale
 70
     0
300
1'-0" = 1'-0"
140
12.0
141
12.0
290
     0
  0
TABLESTYLE
  5
54A
102
{ACAD_REACTORS
330
549
102
}
102
{ACAD_XDICTIONARY
360
EF2
102
}
330
549
100
AcDbTableStyle
  3
Standard
 70
     0
 71
     0
 40
0.06
 41
0.06
280
     0
281
     0
  7
STANDARD
140
0.18
170
     2
 62
     0
 63
   257
283
     0
 90
        4
 91
        0
  1

274
    -2
284
     1
 64
     0
275
    -2
285
     1
 65
     0
276
    -2
286
     1
 66
     0
277
    -2
287
     1
 67
     0
278
    -2
288
     1
 68
     0
279
    -2
289
     1
 69
     0
  7
STANDARD
140
0.25
170
     5
 62
     0
 63
   257
283
     0
 90
        4
 91
        0
  1

274
    -2
284
     1
 64
     0
275
    -2
285
     1
 65
     0
276
    -2
286
     1
 66
     0
277
    -2
287
     1
 67
     0
278
    -2
288
     1
 68
     0
279
    -2
289
     1
 69
     0
  7
STANDARD
140
0.18
170
     5
 62
     0
 63
   257
283
     0
 90
        4
 91
        0
  1

274
    -2
284
     1
 64
     0
275
    -2
285
     1
 65
     0
276
    -2
286
     1
 66
     0
277
    -2
287
     1
 67
     0
278
    -2
288
     1
 68
     0
279
    -2
289
     1
 69
     0
  0
VISUALSTYLE
  5
531
102
{ACAD_REACTORS
330
52C
102
}
330
52C
100
AcDbVisualStyle
  2
2dWireframe
 70
     4
177
     3
291
     0
 70
    58
 90
        0
176
     1
 90
        2
176
     1
 90
        0
176
     1
 90
        0
176
     1
 40
0.6
176
     1
 40
30.0
176
     1
 62
     7
420
 16777215
176
     1
 90
        1
176
     1
 90
        4
176
     1
 62
     7
176
     1
 62
   257
176
     1
 90
        1
176
     1
 90
        1
176
     1
 40
1.0
176
     1
 90
        0
176
     1
 62
   257
176
     1
 40
1.0
176
     1
 90
        1
176
     1
 90
        6
176
     1
 90
        2
176
     1
 62
     7
176
     1
 90
        5
176
     1
 90
        0
176
     1
 90
        0
176
     1
290
     0
176
     1
 90
        1
176
     1
 40
0.0
176
     1
 90
        0
176
     1
290
     1
176
     1
290
     1
176
     1
290
     0
176
     1
290
     0
176
     1
290
     0
176
     1
290
     0
176
     1
290
     0
176
     1
290
     0
176
     1
290
     0
176
     1
 90
       50
176
     1
 40
0.0
176
     1
 40
1.0
176
     1
 90
        0
176
     1
 62
    18
420
        0
176
     1
 90
       50
176
     1
 90
        3
176
     1
 62
     5
420
      255
176
     1
290
     0
176
     1
 90
       50
176
     1
 90
       50
176
     1
 90
       50
176
     1
290
     0
176
     1
 90
       50
176
     1
 62
   256
176
     0
 40
1.0
176
     0
 90
        2
176
     1
  1
strokes_ogs.tif
176
     1
290
     0
176
     1
 40
1.0
176
     1
 40
1.0
176
     1
  0
VISUALSTYLE
  5
534
102
{ACAD_REACTORS
330
52C
102
}
330
52C
100
AcDbVisualStyle
  2
Basic
 70
     7
177
     3
291
     1
 70
    58
 90
        1
176
     1
 90
        0
176
     1
 90
        1
176
     1
 90
        0
176
     1
 40
0.6
176
     1
 40
30.0
176
     1
 62
     7
420
 16777215
176
     1
 90
        0
176
     1
 90
        4
176
     1
 62
     7
176
     1
 62
   257
176
     1
 90
        1
176
     1
 90
        1
176
     1
 40
1.0
176
     1
 90
        8
176
     1
 62
     7
176
     1
 40
1.0
176
     1
 90
        1
176
     1
 90
        6
176
     1
 90
        2
176
     1
 62
     7
176
     1
 90
        5
176
     1
 90
        0
176
     1
 90
        0
176
     1
290
     0
176
     1
 90
        1
176
     1
 40
0.0
176
     1
 90
        0
176
     1
290
     0
176
     1
290
     1
176
     1
290
     1
176
     1
290
     0
176
     1
290
     0
176
     1
290
     0
176
     1
290
     0
176
     1
290
     0
176
     1
290
     0
176
     1
 90
       50
176
     1
 40
0.0
176
     1
 40
1.0
176
     1
 90
        0
176
     1
 62
    18
420
        0
176
     1
 90
       50
176
     1
 90
        3
176
     1
 62
     5
420
      255
176
     1
290
     0
176
     1
 90
       50
176
     1
 90
       50
176
     1
 90
       50
176
     1
290
     0
176
     1
 90
       50
176
     1
 62
   256
176
     0
 40
1.0
176
     0
 90
        2
176
     1
  1
strokes_ogs.tif
176
     1
290
     0
176
     1
 40
1.0
176
     1
 40
1.0
176
     1
  0
VISUALSTYLE
  5
538
102
{ACAD_REACTORS
330
52C
102
}
330
52C
100
AcDbVisualStyle
  2
Brighten
 70
    12
177
     3
291
     1
 70
    58
 90
        2
176
     1
 90
        2
176
     1
 90
        0
176
     1
 90
        0
176
     1
 40
0.6
176
     1
 40
30.0
176
     1
 62
     7
420
 16777215
176
     1
 90
        1
176
     1
 90
        4
176
     1
 62
     7
176
     1
 62
   257
176
     1
 90
        1
176
     1
 90
        1
176
     1
 40
1.0
176
     1
 90
        8
176
     1
 62
     7
176
     1
 40
1.0
176
     1
 90
        1
176
     1
 90
        6
176
     1
 90
        2
176
     1
 62
     7
176
     1
 90
        5
176
     1
 90
        0
176
     1
 90
        0
176
     1
290
     0
176
     1
 90
        1
176
     1
 40
50.0
176
     1
 90
        0
176
     1
290
     0
176
     1
290
     1
176
     1
290
     1
176
     1
290
     0
176
     1
290
     0
176
     1
290
     0
176
     1
290
     0
176
     1
290
     0
176
     1
290
     0
176
     1
 90
       50
176
     1
 40
0.0
176
     1
 40
1.0
176
     1
 90
        0
176
     1
 62
    18
420
        0
176
     1
 90
       50
176
     1
 90
        3
176
     1
 62
     5
420
      255
176
     1
290
     0
176
     1
 90
       50
176
     1
 90
       50
176
     1
 90
       50
176
     1
290
     0
176
     1
 90
       50
176
     1
 62
   256
176
     0
 40
1.0
176
     0
 90
        2
176
     1
  1
strokes_ogs.tif
176
     1
290
     0
176
     1
 40
1.0
176
     1
 40
1.0
176
     1
  0
VISUALSTYLE
  5
53C
102
{ACAD_REACTORS
330
52C
102
}
330
52C
100
AcDbVisualStyle
  2
ColorChange
 70
    16
177
     3
291
     1
 70
    58
 90
        2
176
     1
 90
        2
176
     1
 90
        3
176
     1
 90
        0
176
     1
 40
0.6
176
     1
 40
30.0
176
     1
 62
     8
420
  8421504
176
     1
 90
        1
176
     1
 90
        4
176
     1
 62
     7
176
     1
 62
   257
176
     1
 90
        1
176
     1
 90
        1
176
     1
 40
1.0
176
     1
 90
        8
176
     1
 62
     8
420
  8421504
176
     1
 40
1.0
176
     1
 90
        1
176
     1
 90
        6
176
     1
 90
        2
176
     1
 62
     7
176
     1
 90
        5
176
     1
 90
        0
176
     1
 90
        0
176
     1
290
     0
176
     1
 90
        1
176
     1
 40
0.0
176
     1
 90
        0
176
     1
290
     0
176
     1
290
     1
176
     1
290
     1
176
     1
290
     0
176
     1
290
     0
176
     1
290
     0
176
     1
290
     0
176
     1
290
     0
176
     1
290
     0
176
     1
 90
       50
176
     1
 40
0.0
176
     1
 40
1.0
176
     1
 90
        0
176
     1
 62
    18
420
        0
176
     1
 90
       50
176
     1
 90
        3
176
     1
 62
     5
420
      255
176
     1
290
     0
176
     1
 90
       50
176
     1
 90
       50
176
     1
 90
       50
176
     1
290
     0
176
     1
 90
       50
176
     1
 62
   256
176
     0
 40
1.0
176
     0
 90
        2
176
     1
  1
strokes_ogs.tif
176
     1
290
     0
176
     1
 40
1.0
176
     1
 40
1.0
176
     1
  0
VISUALSTYLE
  5
536
102
{ACAD_REACTORS
330
52C
102
}
330
52C
100
AcDbVisualStyle
  2
Conceptual
 70
     9
177
     3
291
     0
 70
    58
 90
        3
176
     1
 90
        2
176
     1
 90
        0
176
     1
 90
        0
176
     1
 40
0.6
176
     1
 40
30.0
176
     1
 62
     7
420
 16777215
176
     1
 90
        2
176
     1
 90
        2
176
     1
 62
     7
176
     1
 62
   257
176
     1
 90
        1
176
     1
 90
        1
176
     1
 40
179.0
176
     1
 90
        8
176
     1
 62
     7
176
     1
 40
1.0
176
     1
 90
        1
176
     1
 90
        6
176
     1
 90
        2
176
     1
 62
     7
176
     1
 90
        3
176
     1
 90
        0
176
     1
 90
        0
176
     1
290
     0
176
     1
 90
        1
176
     1
 40
0.0
176
     1
 90
        0
176
     1
290
     0
176
     1
290
     1
176
     1
290
     1
176
     1
290
     0
176
     1
290
     0
176
     1
290
     0
176
     1
290
     0
176
     1
290
     0
176
     1
290
     0
176
     1
 90
       50
176
     1
 40
0.0
176
     1
 40
1.0
176
     1
 90
        0
176
     1
 62
    18
420
        0
176
     1
 90
       50
176
     1
 90
        3
176
     1
 62
     5
420
      255
176
     1
290
     0
176
     1
 90
       50
176
     1
 90
       50
176
     1
 90
       50
176
     1
290
     0
176
     1
 90
       50
176
     1
 62
   256
176
     0
 40
1.0
176
     0
 90
        2
176
     1
  1
strokes_ogs.tif
176
     1
290
     0
176
     1
 40
1.0
176
     1
 40
1.0
176
     1
  0
VISUALSTYLE
  5
537
102
{ACAD_REACTORS
330
52C
102
}
330
52C
100
AcDbVisualStyle
  2
Dim
 70
    11
177
     3
291
     1
 70
    58
 90
        2
176
     1
 90
        2
176
     1
 90
        0
176
     1
 90
        0
176
     1
 40
0.6
176
     1
 40
30.0
176
     1
 62
     7
420
 16777215
176
     1
 90
        1
176
     1
 90
        4
176
     1
 62
     7
176
     1
 62
   257
176
     1
 90
        1
176
     1
 90
        1
176
     1
 40
1.0
176
     1
 90
        8
176
     1
 62
     7
176
     1
 40
1.0
176
     1
 90
        1
176
     1
 90
        6
176
     1
 90
        2
176
     1
 62
     7
176
     1
 90
        5
176
     1
 90
        0
176
     1
 90
        0
176
     1
290
     0
176
     1
 90
        1
176
     1
 40
-50.0
176
     1
 90
        0
176
     1
290
     0
176
     1
290
     1
176
     1
290
     1
176
     1
290
     0
176
     1
290
     0
176
     1
290
     0
176
     1
290
     0
176
     1
290
     0
176
     1
290
     0
176
     1
 90
       50
176
     1
 40
0.0
176
     1
 40
1.0
176
     1
 90
        0
176
     1
 62
    18
420
        0
176
     1
 90
       50
176
     1
 90
        3
176
     1
 62
     5
420
      255
176
     1
290
     0
176
     1
 90
       50
176
     1
 90
       50
176
     1
 90
       50
176
     1
290
     0
176
     1
 90
       50
176
     1
 62
   256
176
     0
 40
1.0
176
     0
 90
        2
176
     1
  1
strokes_ogs.tif
176
     1
290
     0
176
     1
 40
1.0
176
     1
 40
1.0
176
     1
  0
VISUALSTYLE
  5
53F
102
{ACAD_REACTORS
330
52C
102
}
330
52C
100
AcDbVisualStyle
  2
EdgeColorOff
 70
    22
177
     3
291
     1
 70
    58
 90
        2
176
     0
 90
        2
176
     0
 90
        0
176
     0
 90
        0
176
     0
 40
0.6
176
     0
 40
30.0
176
     0
 62
     7
420
 16777215
176
     0
 90
        1
176
     0
 90
        4
176
     0
 62
     7
176
     0
 62
   257
176
     0
 90
        1
176
     0
 90
        1
176
     0
 40
1.0
176
     0
 90
        8
176
     2
 62
     7
176
     0
 40
1.0
176
     0
 90
        1
176
     0
 90
        6
176
     0
 90
        2
176
     0
 62
     7
176
     0
 90
        5
176
     0
 90
        0
176
     0
 90
        0
176
     0
290
     0
176
     0
 90
        1
176
     0
 40
0.0
176
     0
 90
        0
176
     0
290
     0
176
     0
290
     1
176
     0
290
     1
176
     0
290
     0
176
     0
290
     0
176
     0
290
     0
176
     0
290
     0
176
     0
290
     0
176
     0
290
     0
176
     0
 90
       50
176
     0
 40
0.0
176
     0
 40
1.0
176
     0
 90
        0
176
     0
 62
    18
420
        0
176
     0
 90
       50
176
     0
 90
        3
176
     0
 62
     5
420
      255
176
     0
290
     0
176
     0
 90
       50
176
     0
 90
       50
176
     0
 90
       50
176
     0
290
     0
176
     0
 90
       50
176
     0
 62
   256
176
     0
 40
1.0
176
     0
 90
        2
176
     0
  1
strokes_ogs.tif
176
     0
290
     0
176
     0
 40
1.0
176
     0
 40
1.0
176
     0
  0
VISUALSTYLE
  5
53B
102
{ACAD_REACTORS
330
52C
102
}
330
52C
100
AcDbVisualStyle
  2
Facepattern
 70
    15
177
     3
291
     1
 70
    58
 90
        2
176
     1
 90
        2
176
     1
 90
        0
176
     1
 90
        0
176
     1
 40
0.6
176
     1
 40
30.0
176
     1
 62
     7
420
 16777215
176
     1
 90
        1
176
     1
 90
        4
176
     1
 62
     7
176
     1
 62
   257
176
     1
 90
        1
176
     1
 90
        1
176
     1
 40
1.0
176
     1
 90
        8
176
     1
 62
     7
176
     1
 40
1.0
176
     1
 90
        1
176
     1
 90
        6
176
     1
 90
        2
176
     1
 62
     7
176
     1
 90
        5
176
     1
 90
        0
176
     1
 90
        0
176
     1
290
     0
176
     1
 90
        1
176
     1
 40
0.0
176
     1
 90
        0
176
     1
290
     0
176
     1
290
     1
176
     1
290
     1
176
     1
290
     0
176
     1
290
     0
176
     1
290
     0
176
     1
290
     0
176
     1
290
     0
176
     1
290
     0
176
     1
 90
       50
176
     1
 40
0.0
176
     1
 40
1.0
176
     1
 90
        0
176
     1
 62
    18
420
        0
176
     1
 90
       50
176
     1
 90
        3
176
     1
 62
     5
420
      255
176
     1
290
     0
176
     1
 90
       50
176
     1
 90
       50
176
     1
 90
       50
176
     1
290
     0
176
     1
 90
       50
176
     1
 62
   256
176
     0
 40
1.0
176
     0
 90
        2
176
     1
  1
strokes_ogs.tif
176
     1
290
     0
176
     1
 40
1.0
176
     1
 40
1.0
176
     1
  0
VISUALSTYLE
  5
52D
102
{ACAD_REACTORS
330
52C
102
}
330
52C
100
AcDbVisualStyle
  2
Flat
 70
     0
177
     3
291
     1
 70
    58
 90
        2
176
     1
 90
        1
176
     1
 90
        1
176
     1
 90
        2
176
     1
 40
0.6
176
     1
 40
30.0
176
     1
 62
     7
420
 16777215
176
     1
 90
        0
176
     1
 90
        0
176
     1
 62
     7
176
     1
 62
   257
176
     1
 90
        1
176
     1
 90
        1
176
     1
 40
1.0
176
     1
 90
        8
176
     1
 62
     7
176
     1
 40
1.0
176
     1
 90
        1
176
     1
 90
        6
176
     1
 90
        2
176
     1
 62
     7
176
     1
 90
        5
176
     1
 90
        0
176
     1
 90
        0
176
     1
290
     0
176
     1
 90
       13
176
     1
 40
0.0
176
     1
 90
        0
176
     1
290
     0
176
     1
290
     1
176
     1
290
     1
176
     1
290
     0
176
     1
290
     0
176
     1
290
     0
176
     1
290
     0
176
     1
290
     0
176
     1
290
     0
176
     1
 90
       50
176
     1
 40
0.0
176
     1
 40
1.0
176
     1
 90
        0
176
     1
 62
    18
420
        0
176
     1
 90
       50
176
     1
 90
        3
176
     1
 62
     5
420
      255
176
     1
290
     0
176
     1
 90
       50
176
     1
 90
       50
176
     1
 90
       50
176
     1
290
     0
176
     1
 90
       50
176
     1
 62
   256
176
     0
 40
1.0
176
     0
 90
        2
176
     1
  1
strokes_ogs.tif
176
     1
290
     0
176
     1
 40
1.0
176
     1
 40
1.0
176
     1
  0
VISUALSTYLE
  5
52E
102
{ACAD_REACTORS
330
52C
102
}
330
52C
100
AcDbVisualStyle
  2
FlatWithEdges
 70
     1
177
     3
291
     1
 70
    58
 90
        2
176
     1
 90
        1
176
     1
 90
        1
176
     1
 90
        2
176
     1
 40
0.6
176
     1
 40
30.0
176
     1
 62
     7
420
 16777215
176
     1
 90
        1
176
     1
 90
        0
176
     1
 62
     7
176
     1
 62
   257
176
     1
 90
        1
176
     1
 90
        1
176
     1
 40
1.0
176
     1
 90
        0
176
     1
 62
   257
176
     1
 40
1.0
176
     1
 90
        1
176
     1
 90
        6
176
     1
 90
        2
176
     1
 62
     7
176
     1
 90
        5
176
     1
 90
        0
176
     1
 90
        0
176
     1
290
     0
176
     1
 90
       13
176
     1
 40
0.0
176
     1
 90
        0
176
     1
290
     0
176
     1
290
     1
176
     1
290
     1
176
     1
290
     0
176
     1
290
     0
176
     1
290
     0
176
     1
290
     0
176
     1
290
     0
176
     1
290
     0
176
     1
 90
       50
176
     1
 40
0.0
176
     1
 40
1.0
176
     1
 90
        0
176
     1
 62
    18
420
        0
176
     1
 90
       50
176
     1
 90
        3
176
     1
 62
     5
420
      255
176
     1
290
     0
176
     1
 90
       50
176
     1
 90
       50
176
     1
 90
       50
176
     1
290
     0
176
     1
 90
       50
176
     1
 62
   256
176
     0
 40
1.0
176
     0
 90
        2
176
     1
  1
strokes_ogs.tif
176
     1
290
     0
176
     1
 40
1.0
176
     1
 40
1.0
176
     1
  0
VISUALSTYLE
  5
52F
102
{ACAD_REACTORS
330
52C
102
}
330
52C
100
AcDbVisualStyle
  2
Gouraud
 70
     2
177
     3
291
     1
 70
    58
 90
        2
176
     1
 90
        2
176
     1
 90
        1
176
     1
 90
        2
176
     1
 40
0.6
176
     1
 40
30.0
176
     1
 62
     7
420
 16777215
176
     1
 90
        0
176
     1
 90
        0
176
     1
 62
     7
176
     1
 62
   257
176
     1
 90
        1
176
     1
 90
        1
176
     1
 40
1.0
176
     1
 90
        0
176
     1
 62
     7
176
     1
 40
1.0
176
     1
 90
        1
176
     1
 90
        6
176
     1
 90
        2
176
     1
 62
     7
176
     1
 90
        5
176
     1
 90
        0
176
     1
 90
        0
176
     1
290
     0
176
     1
 90
       13
176
     1
 40
0.0
176
     1
 90
        0
176
     1
290
     0
176
     1
290
     1
176
     1
290
     1
176
     1
290
     0
176
     1
290
     0
176
     1
290
     0
176
     1
290
     0
176
     1
290
     0
176
     1
290
     0
176
     1
 90
       50
176
     1
 40
0.0
176
     1
 40
1.0
176
     1
 90
        0
176
     1
 62
    18
420
        0
176
     1
 90
       50
176
     1
 90
        3
176
     1
 62
     5
420
      255
176
     1
290
     0
176
     1
 90
       50
176
     1
 90
       50
176
     1
 90
       50
176
     1
290
     0
176
     1
 90
       50
176
     1
 62
   256
176
     0
 40
1.0
176
     0
 90
        2
176
     1
  1
strokes_ogs.tif
176
     1
290
     0
176
     1
 40
1.0
176
     1
 40
1.0
176
     1
  0
VISUALSTYLE
  5
530
102
{ACAD_REACTORS
330
52C
102
}
330
52C
100
AcDbVisualStyle
  2
GouraudWithEdges
 70
     3
177
     3
291
     1
 70
    58
 90
        2
176
     1
 90
        2
176
     1
 90
        1
176
     1
 90
        2
176
     1
 40
0.6
176
     1
 40
30.0
176
     1
 62
     7
420
 16777215
176
     1
 90
        1
176
     1
 90
        0
176
     1
 62
     7
176
     1
 62
   257
176
     1
 90
        1
176
     1
 90
        1
176
     1
 40
1.0
176
     1
 90
        0
176
     1
 62
   257
176
     1
 40
1.0
176
     1
 90
        1
176
     1
 90
        6
176
     1
 90
        2
176
     1
 62
     7
176
     1
 90
        5
176
     1
 90
        0
176
     1
 90
        0
176
     1
290
     0
176
     1
 90
       13
176
     1
 40
0.0
176
     1
 90
        0
176
     1
290
     0
176
     1
290
     1
176
     1
290
     1
176
     1
290
     0
176
     1
290
     0
176
     1
290
     0
176
     1
290
     0
176
     1
290
     0
176
     1
290
     0
176
     1
 90
       50
176
     1
 40
0.0
176
     1
 40
1.0
176
     1
 90
        0
176
     1
 62
    18
420
        0
176
     1
 90
       50
176
     1
 90
        3
176
     1
 62
     5
420
      255
176
     1
290
     0
176
     1
 90
       50
176
     1
 90
       50
176
     1
 90
       50
176
     1
290
     0
176
     1
 90
       50
176
     1
 62
   256
176
     0
 40
1.0
176
     0
 90
        2
176
     1
  1
strokes_ogs.tif
176
     1
290
     0
176
     1
 40
1.0
176
     1
 40
1.0
176
     1
  0
VISUALSTYLE
  5
533
102
{ACAD_REACTORS
330
52C
102
}
330
52C
100
AcDbVisualStyle
  2
Hidden
 70
     6
177
     3
291
     0
 70
    58
 90
        1
176
     1
 90
        2
176
     1
 90
        2
176
     1
 90
        0
176
     1
 40
0.6
176
     1
 40
30.0
176
     1
 62
     7
420
 16777215
176
     1
 90
        2
176
     1
 90
        2
176
     1
 62
     7
176
     1
 62
   257
176
     1
 90
        2
176
     1
 90
        1
176
     1
 40
40.0
176
     1
 90
        0
176
     1
 62
   257
176
     1
 40
1.0
176
     1
 90
        1
176
     1
 90
        6
176
     1
 90
        2
176
     1
 62
     7
176
     1
 90
        3
176
     1
 90
        0
176
     1
 90
        0
176
     1
290
     0
176
     1
 90
        1
176
     1
 40
0.0
176
     1
 90
        0
176
     1
290
     0
176
     1
290
     1
176
     1
290
     1
176
     1
290
     0
176
     1
290
     0
176
     1
290
     0
176
     1
290
     0
176
     1
290
     0
176
     1
290
     0
176
     1
 90
       50
176
     1
 40
0.0
176
     1
 40
1.0
176
     1
 90
        0
176
     1
 62
    18
420
        0
176
     1
 90
       50
176
     1
 90
        3
176
     1
 62
     5
420
      255
176
     1
290
     0
176
     1
 90
       50
176
     1
 90
       50
176
     1
 90
       50
176
     1
290
     0
176
     1
 90
       50
176
     1
 62
   256
176
     0
 40
1.0
176
     0
 90
        2
176
     1
  1
strokes_ogs.tif
176
     1
290
     0
176
     1
 40
1.0
176
     1
 40
1.0
176
     1
  0
VISUALSTYLE
  5
53D
102
{ACAD_REACTORS
330
52C
102
}
330
52C
100
AcDbVisualStyle
  2
JitterOff
 70
    20
177
     3
291
     1
 70
    58
 90
        2
176
     0
 90
        2
176
     0
 90
        0
176
     0
 90
        0
176
     0
 40
0.6
176
     0
 40
30.0
176
     0
 62
     7
420
 16777215
176
     0
 90
        1
176
     0
 90
        4
176
     0
 62
     7
176
     0
 62
   257
176
     0
 90
        1
176
     0
 90
        1
176
     0
 40
1.0
176
     0
 90
       10
176
     2
 62
     7
176
     0
 40
1.0
176
     0
 90
        1
176
     0
 90
        6
176
     0
 90
        2
176
     0
 62
     7
176
     0
 90
        5
176
     0
 90
        0
176
     0
 90
        0
176
     0
290
     0
176
     0
 90
        1
176
     0
 40
0.0
176
     0
 90
        0
176
     0
290
     0
176
     0
290
     1
176
     0
290
     1
176
     0
290
     0
176
     0
290
     0
176
     0
290
     0
176
     0
290
     0
176
     0
290
     0
176
     0
290
     0
176
     0
 90
       50
176
     0
 40
0.0
176
     0
 40
1.0
176
     0
 90
        0
176
     0
 62
    18
420
        0
176
     0
 90
       50
176
     0
 90
        3
176
     0
 62
     5
420
      255
176
     0
290
     0
176
     0
 90
       50
176
     0
 90
       50
176
     0
 90
       50
176
     0
290
     0
176
     0
 90
       50
176
     0
 62
   256
176
     0
 40
1.0
176
     0
 90
        2
176
     0
  1
strokes_ogs.tif
176
     0
290
     0
176
     0
 40
1.0
176
     0
 40
1.0
176
     0
  0
VISUALSTYLE
  5
53A
102
{ACAD_REACTORS
330
52C
102
}
330
52C
100
AcDbVisualStyle
  2
Linepattern
 70
    14
177
     3
291
     1
 70
    58
 90
        2
176
     1
 90
        2
176
     1
 90
        0
176
     1
 90
        0
176
     1
 40
0.6
176
     1
 40
30.0
176
     1
 62
     7
420
 16777215
176
     1
 90
        1
176
     1
 90
        4
176
     1
 62
     7
176
     1
 62
   257
176
     1
 90
        7
176
     1
 90
        7
176
     1
 40
1.0
176
     1
 90
        8
176
     1
 62
     7
176
     1
 40
1.0
176
     1
 90
        1
176
     1
 90
        6
176
     1
 90
        2
176
     1
 62
     7
176
     1
 90
        5
176
     1
 90
        0
176
     1
 90
        0
176
     1
290
     0
176
     1
 90
        1
176
     1
 40
0.0
176
     1
 90
        0
176
     1
290
     0
176
     1
290
     1
176
     1
290
     1
176
     1
290
     0
176
     1
290
     0
176
     1
290
     0
176
     1
290
     0
176
     1
290
     0
176
     1
290
     0
176
     1
 90
       50
176
     1
 40
0.0
176
     1
 40
1.0
176
     1
 90
        0
176
     1
 62
    18
420
        0
176
     1
 90
       50
176
     1
 90
        3
176
     1
 62
     5
420
      255
176
     1
290
     0
176
     1
 90
       50
176
     1
 90
       50
176
     1
 90
       50
176
     1
290
     0
176
     1
 90
       50
176
     1
 62
   256
176
     0
 40
1.0
176
     0
 90
        2
176
     1
  1
strokes_ogs.tif
176
     1
290
     0
176
     1
 40
1.0
176
     1
 40
1.0
176
     1
  0
VISUALSTYLE
  5
53E
102
{ACAD_REACTORS
330
52C
102
}
330
52C
100
AcDbVisualStyle
  2
OverhangOff
 70
    21
177
     3
291
     1
 70
    58
 90
        2
176
     0
 90
        2
176
     0
 90
        0
176
     0
 90
        0
176
     0
 40
0.6
176
     0
 40
30.0
176
     0
 62
     7
420
 16777215
176
     0
 90
        1
176
     0
 90
        4
176
     0
 62
     7
176
     0
 62
   257
176
     0
 90
        1
176
     0
 90
        1
176
     0
 40
1.0
176
     0
 90
        9
176
     2
 62
     7
176
     0
 40
1.0
176
     0
 90
        1
176
     0
 90
        6
176
     0
 90
        2
176
     0
 62
     7
176
     0
 90
        5
176
     0
 90
        0
176
     0
 90
        0
176
     0
290
     0
176
     0
 90
        1
176
     0
 40
0.0
176
     0
 90
        0
176
     0
290
     0
176
     0
290
     1
176
     0
290
     1
176
     0
290
     0
176
     0
290
     0
176
     0
290
     0
176
     0
290
     0
176
     0
290
     0
176
     0
290
     0
176
     0
 90
       50
176
     0
 40
0.0
176
     0
 40
1.0
176
     0
 90
        0
176
     0
 62
    18
420
        0
176
     0
 90
       50
176
     0
 90
        3
176
     0
 62
     5
420
      255
176
     0
290
     0
176
     0
 90
       50
176
     0
 90
       50
176
     0
 90
       50
176
     0
290
     0
176
     0
 90
       50
176
     0
 62
   256
176
     0
 40
1.0
176
     0
 90
        2
176
     0
  1
strokes_ogs.tif
176
     0
290
     0
176
     0
 40
1.0
176
     0
 40
1.0
176
     0
  0
VISUALSTYLE
  5
535
102
{ACAD_REACTORS
330
52C
102
}
330
52C
100
AcDbVisualStyle
  2
Realistic
 70
     8
177
     3
291
     0
 70
    58
 90
        2
176
     1
 90
        3
176
     1
 90
        0
176
     1
 90
        2
176
     1
 40
0.6
176
     1
 40
30.0
176
     1
 62
     7
420
 16777215
176
     1
 90
        0
176
     1
 90
        0
176
     1
 62
     7
176
     1
 62
   257
176
     1
 90
        1
176
     1
 90
        1
176
     1
 40
1.0
176
     1
 90
        8
176
     1
 62
   257
176
     1
 40
1.0
176
     1
 90
        1
176
     1
 90
        6
176
     1
 90
        2
176
     1
 62
     7
176
     1
 90
        3
176
     1
 90
        0
176
     1
 90
        0
176
     1
290
     0
176
     1
 90
       13
176
     1
 40
0.0
176
     1
 90
        0
176
     1
290
     0
176
     1
290
     1
176
     1
290
     1
176
     1
290
     0
176
     1
290
     0
176
     1
290
     0
176
     1
290
     0
176
     1
290
     0
176
     1
290
     0
176
     1
 90
       50
176
     1
 40
0.0
176
     1
 40
1.0
176
     1
 90
        0
176
     1
 62
    18
420
        0
176
     1
 90
       50
176
     1
 90
        3
176
     1
 62
     5
420
      255
176
     1
290
     0
176
     1
 90
       50
176
     1
 90
       50
176
     1
 90
       50
176
     1
290
     0
176
     1
 90
       50
176
     1
 62
   256
176
     0
 40
1.0
176
     0
 90
        2
176
     1
  1
strokes_ogs.tif
176
     1
290
     0
176
     1
 40
1.0
176
     1
 40
1.0
176
     1
  0
VISUALSTYLE
  5
544
102
{ACAD_REACTORS
330
52C
102
}
330
52C
100
AcDbVisualStyle
  2
Shaded
 70
    27
177
     3
291
     0
 70
    58
 90
        2
176
     1
 90
        2
176
     1
 90
        1
176
     1
 90
        2
176
     1
 40
0.6
176
     1
 40
30.0
176
     1
 62
     7
420
 16777215
176
     1
 90
        0
176
     1
 90
        4
176
     1
 62
     7
176
     1
 62
   257
176
     1
 90
        1
176
     1
 90
        1
176
     1
 40
1.0
176
     1
 90
        8
176
     1
 62
   257
176
     1
 40
1.0
176
     1
 90
        1
176
     1
 90
        6
176
     1
 90
        2
176
     1
 62
     8
420
  7895160
176
     1
 90
        3
176
     1
 90
        0
176
     1
 90
        0
176
     1
290
     0
176
     1
 90
        5
176
     1
 40
0.0
176
     1
 90
        0
176
     1
290
     0
176
     1
290
     1
176
     1
290
     1
176
     1
290
     0
176
     1
290
     0
176
     1
290
     0
176
     1
290
     0
176
     1
290
     0
176
     1
290
     0
176
     1
 90
       50
176
     1
 40
0.0
176
     1
 40
1.0
176
     1
 90
        0
176
     1
 62
    18
420
        0
176
     1
 90
       50
176
     1
 90
        3
176
     1
 62
     5
420
      255
176
     1
290
     0
176
     1
 90
       50
176
     1
 90
       50
176
     1
 90
       50
176
     1
290
     0
176
     1
 90
       50
176
     1
 62
   256
176
     0
 40
1.0
176
     0
 90
        2
176
     1
  1
strokes_ogs.tif
176
     1
290
     0
176
     1
 40
1.0
176
     1
 40
1.0
176
     1
  0
VISUALSTYLE
  5
543
102
{ACAD_REACTORS
330
52C
102
}
330
52C
100
AcDbVisualStyle
  2
Shaded with edges
 70
    26
177
     3
291
     0
 70
    58
 90
        2
176
     1
 90
        2
176
     1
 90
        1
176
     1
 90
        2
176
     1
 40
0.6
176
     1
 40
30.0
176
     1
 62
     7
420
 16777215
176
     1
 90
        1
176
     1
 90
       10
176
     1
 62
     7
176
     1
 62
   257
176
     1
 90
        2
176
     1
 90
        1
176
     1
 40
1.0
176
     1
 90
        8
176
     1
 62
   257
176
     1
 40
1.0
176
     1
 90
        1
176
     1
 90
        6
176
     1
 90
        2
176
     1
 62
     7
176
     1
 90
        3
176
     1
 90
        0
176
     1
 90
        0
176
     1
290
     0
176
     1
 90
        5
176
     1
 40
0.0
176
     1
 90
        0
176
     1
290
     0
176
     1
290
     1
176
     1
290
     1
176
     1
290
     0
176
     1
290
     0
176
     1
290
     0
176
     1
290
     0
176
     1
290
     0
176
     1
290
     0
176
     1
 90
       50
176
     1
 40
0.0
176
     1
 40
1.0
176
     1
 90
        0
176
     1
 62
    18
420
        0
176
     1
 90
       50
176
     1
 90
        3
176
     1
 62
     5
420
      255
176
     1
290
     0
176
     1
 90
       50
176
     1
 90
       50
176
     1
 90
       50
176
     1
290
     0
176
     1
 90
       50
176
     1
 62
   256
176
     0
 40
1.0
176
     0
 90
        2
176
     1
  1
strokes_ogs.tif
176
     1
290
     0
176
     1
 40
1.0
176
     1
 40
1.0
176
     1
  0
VISUALSTYLE
  5
540
102
{ACAD_REACTORS
330
52C
102
}
330
52C
100
AcDbVisualStyle
  2
Shades of Gray
 70
    23
177
     3
291
     0
 70
    58
 90
        2
176
     1
 90
        2
176
     1
 90
        3
176
     1
 90
        0
176
     1
 40
0.6
176
     1
 40
30.0
176
     1
 62
     7
420
 16777215
176
     1
 90
        2
176
     1
 90
        2
176
     1
 62
     7
176
     1
 62
     7
176
     1
 90
        1
176
     1
 90
        1
176
     1
 40
40.0
176
     1
 90
        8
176
     1
 62
     7
176
     1
 40
1.0
176
     1
 90
        1
176
     1
 90
        6
176
     1
 90
        2
176
     1
 62
     7
176
     1
 90
        3
176
     1
 90
        0
176
     1
 90
        0
176
     1
290
     0
176
     1
 90
        1
176
     1
 40
0.0
176
     1
 90
        0
176
     1
290
     0
176
     1
290
     1
176
     1
290
     1
176
     1
290
     0
176
     1
290
     0
176
     1
290
     0
176
     1
290
     0
176
     1
290
     0
176
     1
290
     0
176
     1
 90
       50
176
     1
 40
0.0
176
     1
 40
1.0
176
     1
 90
        0
176
     1
 62
    18
420
        0
176
     1
 90
       50
176
     1
 90
        3
176
     1
 62
     5
420
      255
176
     1
290
     0
176
     1
 90
       50
176
     1
 90
       50
176
     1
 90
       50
176
     1
290
     0
176
     1
 90
       50
176
     1
 62
   256
176
     0
 40
1.0
176
     0
 90
        2
176
     1
  1
strokes_ogs.tif
176
     1
290
     0
176
     1
 40
1.0
176
     1
 40
1.0
176
     1
  0
VISUALSTYLE
  5
541
102
{ACAD_REACTORS
330
52C
102
}
330
52C
100
AcDbVisualStyle
  2
Sketchy
 70
    24
177
     3
291
     0
 70
    58
 90
        1
176
     1
 90
        2
176
     1
 90
        2
176
     1
 90
        0
176
     1
 40
0.6
176
     1
 40
30.0
176
     1
 62
     7
420
 16777215
176
     1
 90
        2
176
     1
 90
        2
176
     1
 62
     7
176
     1
 62
     7
176
     1
 90
        1
176
     1
 90
        1
176
     1
 40
40.0
176
     1
 90
       11
176
     1
 62
     7
176
     1
 40
1.0
176
     1
 90
        1
176
     1
 90
        6
176
     1
 90
        2
176
     1
 62
     7
176
     1
 90
        6
176
     1
 90
        0
176
     1
 90
        0
176
     1
290
     0
176
     1
 90
        1
176
     1
 40
0.0
176
     1
 90
        0
176
     1
290
     0
176
     1
290
     1
176
     1
290
     1
176
     1
290
     0
176
     1
290
     0
176
     1
290
     0
176
     1
290
     0
176
     1
290
     0
176
     1
290
     0
176
     1
 90
       50
176
     1
 40
0.0
176
     1
 40
1.0
176
     1
 90
        0
176
     1
 62
    18
420
        0
176
     1
 90
       50
176
     1
 90
        3
176
     1
 62
     5
420
      255
176
     1
290
     0
176
     1
 90
       50
176
     1
 90
       50
176
     1
 90
       50
176
     1
290
     0
176
     1
 90
       50
176
     1
 62
   256
176
     0
 40
1.0
176
     0
 90
        2
176
     1
  1
strokes_ogs.tif
176
     1
290
     0
176
     1
 40
1.0
176
     1
 40
1.0
176
     1
  0
VISUALSTYLE
  5
539
102
{ACAD_REACTORS
330
52C
102
}
330
52C
100
AcDbVisualStyle
  2
Thicken
 70
    13
177
     3
291
     1
 70
    58
 90
        2
176
     1
 90
        2
176
     1
 90
        0
176
     1
 90
        0
176
     1
 40
0.6
176
     1
 40
30.0
176
     1
 62
     7
420
 16777215
176
     1
 90
        1
176
     1
 90
        4
176
     1
 62
     7
176
     1
 62
   257
176
     1
 90
        1
176
     1
 90
        1
176
     1
 40
1.0
176
     1
 90
       12
176
     1
 62
     7
176
     1
 40
1.0
176
     1
 90
        1
176
     1
 90
        6
176
     1
 90
        2
176
     1
 62
     7
176
     1
 90
        5
176
     1
 90
        0
176
     1
 90
        0
176
     1
290
     0
176
     1
 90
        1
176
     1
 40
0.0
176
     1
 90
        0
176
     1
290
     0
176
     1
290
     1
176
     1
290
     1
176
     1
290
     0
176
     1
290
     0
176
     1
290
     0
176
     1
290
     0
176
     1
290
     0
176
     1
290
     0
176
     1
 90
       50
176
     1
 40
0.0
176
     1
 40
1.0
176
     1
 90
        0
176
     1
 62
    18
420
        0
176
     1
 90
       50
176
     1
 90
        3
176
     1
 62
     5
420
      255
176
     1
290
     0
176
     1
 90
       50
176
     1
 90
       50
176
     1
 90
       50
176
     1
290
     0
176
     1
 90
       50
176
     1
 62
   256
176
     0
 40
1.0
176
     0
 90
        2
176
     1
  1
strokes_ogs.tif
176
     1
290
     0
176
     1
 40
1.0
176
     1
 40
1.0
176
     1
  0
VISUALSTYLE
  5
532
102
{ACAD_REACTORS
330
52C
102
}
330
52C
100
AcDbVisualStyle
  2
Wireframe
 70
     5
177
     3
291
     0
 70
    58
 90
        0
176
     1
 90
        2
176
     1
 90
        0
176
     1
 90
        0
176
     1
 40
0.6
176
     1
 40
30.0
176
     1
 62
     7
420
 16777215
176
     1
 90
        1
176
     1
 90
        4
176
     1
 62
     7
176
     1
 62
   257
176
     1
 90
        1
176
     1
 90
        1
176
     1
 40
1.0
176
     1
 90
        0
176
     1
 62
   257
176
     1
 40
1.0
176
     1
 90
        1
176
     1
 90
        6
176
     1
 90
        2
176
     1
 62
     7
176
     1
 90
        3
176
     1
 90
        0
176
     1
 90
        0
176
     1
290
     0
176
     1
 90
        1
176
     1
 40
0.0
176
     1
 90
        0
176
     1
290
     0
176
     1
290
     1
176
     1
290
     1
176
     1
290
     0
176
     1
290
     0
176
     1
290
     0
176
     1
290
     0
176
     1
290
     0
176
     1
290
     0
176
     1
 90
       50
176
     1
 40
0.0
176
     1
 40
1.0
176
     1
 90
        0
176
     1
 62
    18
420
        0
176
     1
 90
       50
176
     1
 90
        3
176
     1
 62
     5
420
      255
176
     1
290
     0
176
     1
 90
       50
176
     1
 90
       50
176
     1
 90
       50
176
     1
290
     0
176
     1
 90
       50
176
     1
 62
   256
176
     0
 40
1.0
176
     0
 90
        2
176
     1
  1
strokes_ogs.tif
176
     1
290
     0
176
     1
 40
1.0
176
     1
 40
1.0
176
     1
  0
VISUALSTYLE
  5
542
102
{ACAD_REACTORS
330
52C
102
}
330
52C
100
AcDbVisualStyle
  2
X-Ray
 70
    25
177
     3
291
     0
 70
    58
 90
        2
176
     1
 90
        2
176
     1
 90
        1
176
     1
 90
        1
176
     1
 40
0.5
176
     1
 40
30.0
176
     1
 62
     7
420
 16777215
176
     1
 90
        1
176
     1
 90
        0
176
     1
 62
     7
176
     1
 62
   257
176
     1
 90
        1
176
     1
 90
        1
176
     1
 40
1.0
176
     1
 90
        8
176
     1
 62
     7
176
     1
 40
1.0
176
     1
 90
        1
176
     1
 90
        6
176
     1
 90
        2
176
     1
 62
     7
176
     1
 90
        3
176
     1
 90
        0
176
     1
 90
        0
176
     1
290
     0
176
     1
 90
       13
176
     1
 40
0.0
176
     1
 90
        0
176
     1
290
     0
176
     1
290
     1
176
     1
290
     1
176
     1
290
     0
176
     1
290
     0
176
     1
290
     0
176
     1
290
     0
176
     1
290
     0
176
     1
290
     0
176
     1
 90
       50
176
     1
 40
0.0
176
     1
 40
1.0
176
     1
 90
        0
176
     1
 62
    18
420
        0
176
     1
 90
       50
176
     1
 90
        3
176
     1
 62
     5
420
      255
176
     1
290
     0
176
     1
 90
       50
176
     1
 90
       50
176
     1
 90
       50
176
     1
290
     0
176
     1
 90
       50
176
     1
 62
   256
176
     0
 40
1.0
176
     0
 90
        2
176
     1
  1
strokes_ogs.tif
176
     1
290
     0
176
     1
 40
1.0
176
     1
 40
1.0
176
     1
  0
DICTIONARYVAR
  5
A31
102
{ACAD_REACTORS
330
741
102
}
330
741
100
DictionaryVariables
280
     0
  1
1:1
  0
DICTIONARYVAR
  5
EF6
102
{ACAD_REACTORS
330
741
102
}
330
741
100
DictionaryVariables
280
     0
  1
Standard
  0
DICTIONARYVAR
  5
EF5
102
{ACAD_REACTORS
330
741
102
}
330
741
100
DictionaryVariables
280
     0
  1
Standard
  0
DICTIONARYVAR
  5
EF7
102
{ACAD_REACTORS
330
741
102
}
330
741
100
DictionaryVariables
280
     0
  1
1
  0
DICTIONARY
  5
EF2
330
54A
100
AcDbDictionary
280
     1
281
     1
  3
ACAD_ROUNDTRIP_2008_TABLESTYLE_CELLSTYLEMAP
360
EF3
  0
CELLSTYLEMAP
  5
EF3
102
{ACAD_REACTORS
330
EF2
102
}
330
EF2
100
AcDbCellStyleMap
 90
        3
300
CELLSTYLE
  1
TABLEFORMAT_BEGIN
 90
        5
170
     1
 91
        0
 92
    32768
 62
   257
 93
        1
300
CONTENTFORMAT
  1
CONTENTFORMAT_BEGIN
 90
        0
 91
        0
 92
        4
 93
        0
300

 40
0.0
140
1.0
 94
        5
 62
     0
340
11
144
0.25
309
CONTENTFORMAT_END
171
     1
301
MARGIN
  1
CELLMARGIN_BEGIN
 40
0.06
 40
0.06
 40
0.06
 40
0.06
 40
0.06
 40
0.06
309
CELLMARGIN_END
 94
        6
 95
        1
302
GRIDFORMAT
  1
GRIDFORMAT_BEGIN
 90
        0
 91
        1
 62
     0
 92
       -2
340
14
 93
        0
 40
0.045
309
GRIDFORMAT_END
 95
        2
302
GRIDFORMAT
  1
GRIDFORMAT_BEGIN
 90
        0
 91
        1
 62
     0
 92
       -2
340
14
 93
        0
 40
0.045
309
GRIDFORMAT_END
 95
        4
302
GRIDFORMAT
  1
GRIDFORMAT_BEGIN
 90
        0
 91
        1
 62
     0
 92
       -2
340
14
 93
        0
 40
0.045
309
GRIDFORMAT_END
 95
        8
302
GRIDFORMAT
  1
GRIDFORMAT_BEGIN
 90
        0
 91
        1
 62
     0
 92
       -2
340
14
 93
        0
 40
0.045
309
GRIDFORMAT_END
 95
       16
302
GRIDFORMAT
  1
GRIDFORMAT_BEGIN
 90
        0
 91
        1
 62
     0
 92
       -2
340
14
 93
        0
 40
0.045
309
GRIDFORMAT_END
 95
       32
302
GRIDFORMAT
  1
GRIDFORMAT_BEGIN
 90
        0
 91
        1
 62
     0
 92
       -2
340
14
 93
        0
 40
0.045
309
GRIDFORMAT_END
309
TABLEFORMAT_END
  1
CELLSTYLE_BEGIN
 90
        1
 91
        1
300
_TITLE
309
CELLSTYLE_END
300
CELLSTYLE
  1
TABLEFORMAT_BEGIN
 90
        5
170
     1
 91
        0
 92
        0
 62
   257
 93
        1
300
CONTENTFORMAT
  1
CONTENTFORMAT_BEGIN
 90
        0
 91
        0
 92
        4
 93
        0
300

 40
0.0
140
1.0
 94
        5
 62
     0
340
11
144
0.18
309
CONTENTFORMAT_END
171
     1
301
MARGIN
  1
CELLMARGIN_BEGIN
 40
0.06
 40
0.06
 40
0.06
 40
0.06
 40
0.06
 40
0.06
309
CELLMARGIN_END
 94
        6
 95
        1
302
GRIDFORMAT
  1
GRIDFORMAT_BEGIN
 90
        0
 91
        1
 62
     0
 92
       -2
340
14
 93
        0
 40
0.045
309
GRIDFORMAT_END
 95
        2
302
GRIDFORMAT
  1
GRIDFORMAT_BEGIN
 90
        0
 91
        1
 62
     0
 92
       -2
340
14
 93
        0
 40
0.045
309
GRIDFORMAT_END
 95
        4
302
GRIDFORMAT
  1
GRIDFORMAT_BEGIN
 90
        0
 91
        1
 62
     0
 92
       -2
340
14
 93
        0
 40
0.045
309
GRIDFORMAT_END
 95
        8
302
GRIDFORMAT
  1
GRIDFORMAT_BEGIN
 90
        0
 91
        1
 62
     0
 92
       -2
340
14
 93
        0
 40
0.045
309
GRIDFORMAT_END
 95
       16
302
GRIDFORMAT
  1
GRIDFORMAT_BEGIN
 90
        0
 91
        1
 62
     0
 92
       -2
340
14
 93
        0
 40
0.045
309
GRIDFORMAT_END
 95
       32
302
GRIDFORMAT
  1
GRIDFORMAT_BEGIN
 90
        0
 91
        1
 62
     0
 92
       -2
340
14
 93
        0
 40
0.045
309
GRIDFORMAT_END
309
TABLEFORMAT_END
  1
CELLSTYLE_BEGIN
 90
        2
 91
        1
300
_HEADER
309
CELLSTYLE_END
300
CELLSTYLE
  1
TABLEFORMAT_BEGIN
 90
        5
170
     1
 91
        0
 92
        0
 62
   257
 93
        1
300
CONTENTFORMAT
  1
CONTENTFORMAT_BEGIN
 90
        0
 91
        0
 92
        4
 93
        0
300

 40
0.0
140
1.0
 94
        2
 62
     0
340
11
144
0.18
309
CONTENTFORMAT_END
171
     1
301
MARGIN
  1
CELLMARGIN_BEGIN
 40
0.06
 40
0.06
 40
0.06
 40
0.06
 40
0.06
 40
0.06
309
CELLMARGIN_END
 94
        6
 95
        1
302
GRIDFORMAT
  1
GRIDFORMAT_BEGIN
 90
        0
 91
        1
 62
     0
 92
       -2
340
14
 93
        0
 40
0.045
309
GRIDFORMAT_END
 95
        2
302
GRIDFORMAT
  1
GRIDFORMAT_BEGIN
 90
        0
 91
        1
 62
     0
 92
       -2
340
14
 93
        0
 40
0.045
309
GRIDFORMAT_END
 95
        4
302
GRIDFORMAT
  1
GRIDFORMAT_BEGIN
 90
        0
 91
        1
 62
     0
 92
       -2
340
14
 93
        0
 40
0.045
309
GRIDFORMAT_END
 95
        8
302
GRIDFORMAT
  1
GRIDFORMAT_BEGIN
 90
        0
 91
        1
 62
     0
 92
       -2
340
14
 93
        0
 40
0.045
309
GRIDFORMAT_END
 95
       16
302
GRIDFORMAT
  1
GRIDFORMAT_BEGIN
 90
        0
 91
        1
 62
     0
 92
       -2
340
14
 93
        0
 40
0.045
309
GRIDFORMAT_END
 95
       32
302
GRIDFORMAT
  1
GRIDFORMAT_BEGIN
 90
        0
 91
        1
 62
     0
 92
       -2
340
14
 93
        0
 40
0.045
309
GRIDFORMAT_END
309
TABLEFORMAT_END
  1
CELLSTYLE_BEGIN
 90
        3
 91
        2
300
_DATA
309
CELLSTYLE_END
  0
ENDSEC
  0
EOF
